<?xml version="1.0" standalone="no"?>
<!DOCTYPE svg PUBLIC "-//W3C//DTD SVG 1.1//EN" "http://www.w3.org/Graphics/SVG/1.1/DTD/svg11.dtd" >
<svg xmlns="http://www.w3.org/2000/svg">
<metadata></metadata>
<defs>
<font id="brandon_grotesquemedium" horiz-adv-x="1355" >
<font-face units-per-em="2048" ascent="1434" descent="-614" />
<missing-glyph horiz-adv-x="450" />
<glyph unicode="&#xfb01;" horiz-adv-x="1114" d="M61 688v92q0 17 11 28t28 11h97v254q0 177 105 279t263 102q90 0 173.5 -30.5t133.5 -61.5q12 -7 15.5 -23t-4.5 -28l-52 -92q-15 -31 -53 -11q-119 66 -213 66q-70 0 -120 -51t-50 -150v-254h547q15 0 27 -12t12 -27v-741q0 -15 -12 -27t-27 -12h-117q-15 0 -27 12 t-12 27v610h-391v-610q0 -39 -57 -39h-102q-15 0 -27 12t-12 27v610h-97q-17 0 -28 11.5t-11 27.5z" />
<glyph unicode="&#xfb02;" horiz-adv-x="1130" d="M59 690v90q0 17 11 28t28 11h101v254q0 181 105 281t261 100q49 0 95.5 -11.5t79 -28t57.5 -32.5t37 -28l12 -11l18 56q16 35 45 35h49q15 0 27 -12t12 -27v-1356q0 -15 -12 -27t-27 -12h-116q-15 0 -27 12t-12 27v1114q-5 7 -12.5 15.5t-29.5 28t-45.5 34t-60 26 t-73.5 11.5q-76 0 -131.5 -48.5t-55.5 -146.5v-254h205q17 0 28 -11t11 -28v-90q0 -16 -11 -27.5t-28 -11.5h-205v-612q0 -15 -12 -27t-27 -12h-120q-15 0 -26 12t-11 27v612h-101q-17 0 -28 11.5t-11 27.5z" />
<glyph horiz-adv-x="2048" />
<glyph horiz-adv-x="2048" />
<glyph unicode="&#xd;" horiz-adv-x="2048" />
<glyph unicode=" "  horiz-adv-x="450" />
<glyph unicode="&#x09;" horiz-adv-x="450" />
<glyph unicode="&#xa0;" horiz-adv-x="450" />
<glyph unicode="!" horiz-adv-x="602" d="M158 121q0 59 42 101t99 42q60 0 101.5 -41.5t41.5 -101.5q0 -59 -41.5 -100t-101.5 -41q-57 0 -99 41.5t-42 99.5zM180 1161v234q0 15 12 27t27 12h164q15 0 27 -12t12 -27v-230l-60 -575q-2 -12 -13.5 -22.5t-24.5 -10.5h-45q-13 0 -25 10.5t-14 22.5z" />
<glyph unicode="&#x22;" horiz-adv-x="663" d="M86 1065v330q0 15 12 27t27 12h117q21 0 32 -15.5t5 -36.5l-70 -325q-3 -12 -14.5 -21.5t-22.5 -9.5h-47q-15 0 -27 12t-12 27zM416 1065v330q0 15 12 27t27 12h116q21 0 32 -15.5t5 -36.5l-69 -325q-3 -12 -14.5 -21.5t-22.5 -9.5h-47q-15 0 -27 12t-12 27z" />
<glyph unicode="#" horiz-adv-x="1105" d="M82 426v29q0 17 11 27t28 10h158l49 342h-148q-16 0 -27.5 9.5t-11.5 24.5v29q0 15 12 26t27 11h160l66 467q2 12 12.5 22.5t23.5 10.5h23q18 0 29 -13.5t8 -31.5l-62 -455h316l63 467q2 12 14 22.5t25 10.5h19q19 0 30 -13t8 -32l-61 -455h137q17 0 28 -11t11 -26v-29 q0 -15 -10 -24.5t-27 -9.5h-151l-49 -342h139q16 0 27.5 -10t11.5 -27v-29q0 -15 -11 -25t-26 -10h-156l-51 -358q-2 -14 -13 -23.5t-26 -9.5h-20q-19 0 -30 13t-9 32l51 346h-320l-49 -358q-1 -13 -13 -23t-26 -10h-18q-20 0 -31 13t-8 32l49 346h-143q-17 0 -28 10t-11 25 zM377 492h319l45 342h-315z" />
<glyph unicode="$" horiz-adv-x="1069" d="M81.5 177.5q-0.5 13.5 10.5 29.5l60 86q29 41 63 14q11 -11 43.5 -35t99.5 -58t129 -46q0 78 1 231.5t1 231.5q-87 34 -148.5 66.5t-120 80.5t-91 113t-37.5 147q-2 25 2 74q5 57 31.5 111t72.5 102.5t121.5 82.5t169.5 44v66q0 17 11.5 27.5t27.5 10.5h21 q16 0 27.5 -10.5t11.5 -27.5v-68q177 -14 332 -117q14 -9 19 -27t-7 -42q-6 -8 -15.5 -23.5t-16.5 -25.5t-16.5 -22.5t-17.5 -19.5t-17.5 -12t-19.5 -4t-20 8l-25 15q-24 14 -51 28.5t-68 31.5t-77 26q0 -75 -1 -225.5t-1 -225.5q73 -31 126 -58t110.5 -67.5t93.5 -84.5 t59.5 -105.5t23.5 -132.5q0 -159 -115 -265t-300 -120v-213q0 -18 -12.5 -27.5t-30.5 -9.5q-54 0 -54 37v213q-75 6 -145 26.5t-119 49t-76 47.5t-45 36q-11 11 -15.5 17t-5 19.5zM291 1092q0 -76 48.5 -132.5t147.5 -103.5v414q-96 -10 -146 -63.5t-50 -114.5zM586 160 q85 11 141.5 63.5t56.5 124.5t-48.5 129t-149.5 109v-426z" />
<glyph unicode="%" horiz-adv-x="1368" d="M57 1180q0 115 80.5 195.5t196.5 80.5q114 0 195 -80.5t81 -195.5t-81 -196t-195 -81q-116 0 -196.5 80.5t-80.5 196.5zM205 1180q0 -55 37.5 -93t91.5 -38q53 0 90 38t37 93q0 51 -37.5 89t-89.5 38q-54 0 -91.5 -37.5t-37.5 -89.5zM238 17.5q-11 17.5 0 37.5l702 1358 q14 21 35 21h67q23 0 34.5 -18t0.5 -38l-706 -1358q-3 -6 -15 -13t-20 -7h-64q-23 0 -34 17.5zM719 254q0 116 80.5 196t195.5 80q114 0 195.5 -80.5t81.5 -195.5t-81.5 -196t-195.5 -81q-115 0 -195.5 80.5t-80.5 196.5zM864 254q0 -54 38 -91.5t93 -37.5q51 0 89 37.5 t38 91.5q0 52 -38 89.5t-89 37.5q-55 0 -93 -37t-38 -90z" />
<glyph unicode="&#x26;" horiz-adv-x="1390" d="M162 360q0 51 12.5 98.5t30 83t46.5 70t51.5 56t55.5 45.5t48.5 33.5t39.5 23.5v4l-47 51q-69 72 -105.5 142t-35.5 155q0 60 24 118t68.5 106.5t118 78t164.5 29.5q164 0 265 -94t101 -232q0 -41 -12 -81t-28 -71t-44.5 -64.5t-48.5 -54t-54 -47.5t-47.5 -36.5 t-41.5 -28.5l287 -286q67 129 77 295q1 33 14.5 44t43.5 5l84 -17q9 -1 15.5 -4t10.5 -6.5t6.5 -8.5t3.5 -8.5t1 -10v-9t-1 -9t-1 -7.5q-11 -107 -46 -211t-79 -182l190 -185q15 -15 21 -25.5t1.5 -28.5t-26.5 -40l-53 -53q-44 -41 -88 6l-162 164q-68 -77 -181 -132.5 t-266 -55.5q-187 0 -300 110t-113 270zM356 373q0 -96 68.5 -158.5t167.5 -62.5q183 0 307 147l-342 360q-36 -23 -60 -40.5t-62 -54.5t-58.5 -85.5t-20.5 -105.5zM440 1120q-1 -55 28 -101t91 -108l45 -45q2 1 20.5 12t25.5 15.5t26.5 17.5t29 21t27 23t27.5 27t22.5 29.5 t19 33.5t11 35.5t4.5 39.5q0 70 -53 123t-141 53q-84 0 -133.5 -50.5t-49.5 -125.5z" />
<glyph unicode="'" horiz-adv-x="333" d="M86 1065v330q0 15 12 27t27 12h117q21 0 32 -15.5t5 -36.5l-70 -325q-3 -12 -14.5 -21.5t-22.5 -9.5h-47q-15 0 -27 12t-12 27z" />
<glyph unicode="(" horiz-adv-x="698" d="M102 645q0 130 15.5 240t42 190.5t64.5 144t80.5 105t93 69.5t99.5 40.5t101 15.5q36 3 39 -27l4 -94q3 -13 -4.5 -24t-18.5 -13q-167 -37 -242 -198.5t-75 -448.5q0 -288 75 -449t242 -200q11 -3 18.5 -13.5t4.5 -23.5l-4 -94q-3 -27 -39 -27q-62 4 -118 22t-113.5 54.5 t-104 99t-83.5 148t-57 209t-20 274.5z" />
<glyph unicode=")" horiz-adv-x="698" d="M57 -39q-2 12 5.5 23t17.5 12q168 39 243.5 200t75.5 449q0 287 -76 448.5t-243 198.5q-11 2 -17.5 13t-5.5 24l6 94q0 30 37 27q52 -3 101 -15.5t99.5 -40.5t93 -69.5t80.5 -105t64.5 -144t42 -190.5t15.5 -240q0 -151 -20 -274.5t-57 -209t-83.5 -148t-104 -99 t-113.5 -54.5t-118 -22q-37 0 -37 27z" />
<glyph unicode="*" horiz-adv-x="692" d="M61 1244q-3 16 5 28q19 31 26 39q8 12 23.5 15.5t27.5 -5.5l146 -100l-4 174q0 15 12 27t27 12h45q15 0 27 -12t12 -27l-5 -174l144 104q12 7 28 3.5t25 -15.5l25 -39q8 -13 5 -28.5t-16 -24.5l-163 -103l163 -102q14 -9 17.5 -25t-4.5 -28l-27 -39q-7 -13 -23.5 -17 t-29.5 4l-144 103l5 -172q0 -15 -12 -27t-27 -12h-45q-15 0 -27 12t-12 27l4 174l-144 -101q-12 -9 -28.5 -5t-24.5 16l-24 39q-9 14 -5.5 30t15.5 25l162 98l-164 101q-12 9 -15 25z" />
<glyph unicode="+" horiz-adv-x="1193" d="M162 666v86q0 15 12 27t27 12h315v317q0 15 12 26t27 11h86q15 0 27 -11t12 -26v-317h315q15 0 26 -12t11 -27v-86q0 -15 -11 -27t-26 -12h-315v-314q0 -15 -12 -26t-27 -11h-86q-15 0 -27 11t-12 26v314h-315q-15 0 -27 12t-12 27z" />
<glyph unicode="," horiz-adv-x="499" d="M92 121q0 59 43.5 101t106.5 42q68 0 119 -53.5t51 -173.5q0 -74 -21 -144t-54 -121.5t-65 -86.5t-63 -58q-28 -25 -49 0l-31 31q-9 9 -7 24t17 27q146 127 146 279q-1 0 -8.5 -2t-19.5 -4t-24 -2q-57 0 -99 41.5t-42 99.5z" />
<glyph unicode="-" horiz-adv-x="798" d="M139 459v88q0 17 11 28t28 11h443q17 0 27.5 -11t10.5 -28v-88q0 -15 -10.5 -26t-27.5 -11h-443q-17 0 -28 11t-11 26z" />
<glyph unicode="." horiz-adv-x="468" d="M92 121q0 60 41 101.5t100 41.5q60 0 102 -41.5t42 -101.5q0 -59 -42 -100t-102 -41q-59 0 -100 41t-41 100z" />
<glyph unicode="/" horiz-adv-x="686" d="M70 51l401 1356q3 11 14 19t23 8h96q22 0 32.5 -15t4.5 -37l-399 -1355q-3 -10 -14.5 -18.5t-22.5 -8.5h-99q-21 0 -31.5 15t-4.5 36z" />
<glyph unicode="0" horiz-adv-x="1292" d="M139 696q0 338 133 527.5t375 189.5q241 0 373.5 -189.5t132.5 -527.5t-132.5 -527t-373.5 -189q-242 0 -375 189t-133 527zM346 696q0 -255 78 -392.5t223 -137.5q143 0 221 138t78 392q0 252 -78.5 390.5t-220.5 138.5q-144 0 -222.5 -138t-78.5 -391z" />
<glyph unicode="1" horiz-adv-x="702" d="M66 1087q-10 25 6 41l290 265h101q15 0 26 -12t11 -27v-1315q0 -15 -11 -27t-26 -12h-125q-17 0 -28 11.5t-11 27.5v1040l-164 -78q-13 -6 -27 -2t-18 17z" />
<glyph unicode="2" horiz-adv-x="1060" d="M74 39v53q90 102 295.5 348.5t220.5 264.5q155 175 155 299q0 41 -14.5 79t-43 71t-78.5 53t-115 20q-133 0 -261 -137q-12 -12 -27.5 -12t-27.5 12l-69 69q-10 10 -11.5 25t8.5 28q6 8 18 21.5t51.5 48.5t83 61.5t110.5 48t135 21.5q107 0 193 -32.5t141 -88t84.5 -127 t29.5 -153.5q0 -107 -47 -192.5t-149 -207.5q-197 -236 -373 -436h522q15 0 27 -12t12 -27v-98q0 -15 -12 -27t-27 -12h-792q-17 0 -28 11.5t-11 27.5z" />
<glyph unicode="3" horiz-adv-x="1083" d="M77.5 187q0.5 15 10.5 24l80 74q30 24 55 -4q7 -9 28.5 -27t57.5 -42t88 -41t105 -17q104 0 180 61t76 160q0 100 -84.5 169.5t-239.5 69.5h-115q-38 0 -38 43v88q0 23 9.5 33t31.5 10h114q139 0 214 62t75 158q0 99 -69 161t-164 62q-133 0 -238 -115q-9 -12 -24 -14 t-29 10l-76 68q-12 11 -11.5 26.5t11.5 26.5q6 7 18 19.5t51 43.5t80.5 54.5t104.5 43t125 19.5q183 0 305.5 -103.5t122.5 -271.5q0 -109 -65.5 -196.5t-145.5 -124.5v-6q39 -17 79.5 -46.5t80 -72t64 -101t24.5 -120.5q0 -170 -127 -280.5t-336 -110.5q-265 0 -420 182 q-9 10 -8.5 25z" />
<glyph unicode="4" horiz-adv-x="1214" d="M33 344v123l758 936q12 12 30 12h76q16 0 27.5 -11t11.5 -28v-905h166q17 0 28 -11t11 -26v-86q0 -16 -11 -27.5t-28 -11.5h-166l2 -270q0 -15 -12 -27t-27 -12h-121q-15 0 -27 12t-12 27v266h-667q-17 0 -28 11.5t-11 27.5zM254 475h494v602z" />
<glyph unicode="5" horiz-adv-x="1085" d="M105.5 187q-0.5 13 17.5 32q14 11 38 35.5t38 36.5q28 24 49 0q8 -11 29.5 -29t58 -43.5t89.5 -43t107 -17.5q121 0 200 87t79 201q0 113 -74.5 188t-210.5 75h-313q-29 0 -46 22t-17 49v574q0 16 10.5 27.5t27.5 11.5h633q17 0 28 -11.5t11 -27.5v-101q0 -16 -11 -27.5 t-28 -11.5h-487v-323h207q223 0 347 -119t124 -323q0 -95 -37 -181t-100.5 -149.5t-154.5 -101t-194 -37.5q-79 0 -148 17t-117.5 45.5t-79.5 54t-54 53.5q-21 24 -21.5 37z" />
<glyph unicode="6" horiz-adv-x="1107" d="M98 553q0 118 28.5 225t72.5 187.5t107 152.5t123.5 121t130.5 91.5t119 65.5t97 42q38 12 51 -25l35 -84q17 -42 -37 -59q-33 -11 -80.5 -34.5t-111.5 -66t-121 -92.5t-106 -119.5t-68 -140.5q17 11 47.5 25t97 32.5t127.5 18.5q82 0 158.5 -30t137 -85t96.5 -140.5 t36 -188.5q0 -193 -135 -331t-321 -138q-120 0 -213.5 45t-152 124t-88.5 181.5t-30 222.5zM297 569q-6 -68 7 -136.5t44.5 -130t91.5 -100t140 -38.5q113 0 191.5 83t78.5 199t-79 197.5t-193 81.5q-106 0 -186.5 -57t-94.5 -99z" />
<glyph unicode="7" horiz-adv-x="978" d="M53 1251v103q0 15 12 27t27 12h838q15 0 27 -12t12 -27v-15l-602 -1284q-14 -33 -29 -44t-51 -11h-94q-20 0 -34 12t-14 27v22l553 1151h-606q-15 0 -27 12t-12 27z" />
<glyph unicode="8" horiz-adv-x="1171" d="M113 373q0 51 18.5 100.5t46.5 87t62.5 70t64.5 52.5t55 32v6q-36 18 -70.5 46.5t-67 68t-52.5 92.5t-20 110q0 167 123.5 271t310.5 104q191 0 314.5 -104t123.5 -271q0 -107 -65 -190.5t-146 -124.5v-8q39 -18 79 -48t79.5 -72.5t64.5 -101t25 -120.5 q0 -171 -129.5 -282t-347.5 -111q-212 0 -340.5 111.5t-128.5 281.5zM326 369q0 -98 76.5 -161t181.5 -63q111 0 186.5 62t75.5 162q0 86 -70 156.5t-190 88.5q-120 -18 -190 -88.5t-70 -156.5zM356 1030q0 -86 57 -143.5t173 -75.5q114 17 171.5 75.5t57.5 143.5 q0 93 -66.5 154t-168.5 61q-94 0 -159 -61t-65 -154z" />
<glyph unicode="9" horiz-adv-x="1105" d="M68 956q0 127 62 235t167.5 171t228.5 63q119 0 212.5 -45t151.5 -124t88 -182t30 -224q0 -118 -28.5 -225t-72.5 -187.5t-107.5 -152.5t-123.5 -120.5t-130 -91.5t-118.5 -66t-97.5 -42q-38 -12 -51 25l-35 86q-17 42 37 59q33 11 81 34.5t112 66t121.5 92.5 t106.5 118.5t68 139.5q-133 -74 -272 -74q-83 0 -160 30t-137 85t-96.5 140.5t-36.5 188.5zM256 958q0 -117 79 -198.5t193 -81.5q57 0 110.5 19t88.5 45.5t56.5 51t25.5 40.5q7 67 -6 136.5t-44.5 131t-92 100.5t-140.5 39q-112 0 -191 -84t-79 -199z" />
<glyph unicode=":" horiz-adv-x="505" d="M121 111q0 55 38.5 94t94.5 39q55 0 93 -38.5t38 -94.5q0 -54 -38 -92.5t-93 -38.5t-94 38.5t-39 92.5zM121 707q0 55 38.5 94t94.5 39q55 0 93 -38.5t38 -94.5q0 -54 -38 -93t-93 -39t-94 39t-39 93z" />
<glyph unicode=";" horiz-adv-x="518" d="M121 707q0 55 38.5 94t94.5 39q55 0 93 -38.5t38 -94.5q0 -54 -38 -93t-93 -39t-94 39t-39 93zM125 106q0 53 38 90t93 37q63 0 108.5 -47t45.5 -155q0 -65 -19 -127.5t-49.5 -110.5t-57 -80.5t-53.5 -56.5t-49 -2l-28 31q-20 19 8 47q11 9 22 19t33 35.5t37.5 52 t28 66.5t12.5 81q-12 -6 -43 -6q-53 0 -90 37t-37 89z" />
<glyph unicode="&#x3c;" horiz-adv-x="892" d="M43 465v10q0 9 6 19.5t14 15.5l703 434q20 12 38.5 2t18.5 -35v-108q0 -25 -20 -37l-488 -295l488 -285q20 -12 20 -34v-109q0 -25 -18.5 -35t-38.5 2l-703 420q-8 5 -14 15.5t-6 19.5z" />
<glyph unicode="=" horiz-adv-x="1019" d="M152 311v90q0 16 10.5 27.5t27.5 11.5h639q17 0 28 -11.5t11 -27.5v-90q0 -16 -11 -27.5t-28 -11.5h-639q-17 0 -27.5 11.5t-10.5 27.5zM152 743v88q0 16 10.5 27.5t27.5 11.5h639q17 0 28 -11.5t11 -27.5v-88q0 -15 -11 -26.5t-28 -11.5h-639q-17 0 -27.5 11t-10.5 27z " />
<glyph unicode="&#x3e;" horiz-adv-x="892" d="M70 43v109q0 24 20 34l485 285l-485 295q-20 10 -20 37v108q0 25 18.5 35t38.5 -2l702 -434q8 -5 14.5 -15.5t6.5 -19.5v-10q0 -9 -6.5 -19.5t-14.5 -15.5l-702 -420q-20 -12 -38.5 -2t-18.5 35z" />
<glyph unicode="?" horiz-adv-x="929" d="M78 1221q-24 21 0 53q5 7 15.5 19.5t46.5 43.5t77.5 54.5t109 43t140.5 19.5q161 0 269 -92.5t108 -237.5q0 -72 -33 -131t-79.5 -98t-93 -73t-79.5 -71.5t-33 -76.5v-76q0 -20 -12 -30.5t-31 -10.5h-110q-16 0 -27.5 11t-11.5 28v86q0 45 16.5 84t42.5 67.5t57.5 55 t63.5 51t58 50t42.5 59t16.5 71.5q0 66 -49.5 112t-135.5 46q-41 0 -76.5 -8.5t-64 -25.5t-45 -29.5t-38.5 -34t-27 -25.5q-25 -22 -50 0zM285 121q0 60 41 101.5t100 41.5q60 0 101.5 -41.5t41.5 -101.5q0 -59 -41.5 -100t-101.5 -41q-58 0 -99.5 41t-41.5 100z" />
<glyph unicode="@" horiz-adv-x="2013" d="M76 457q0 216 69 401t192.5 316t303.5 205.5t393 74.5q205 0 372.5 -65.5t277.5 -181.5t169.5 -274t59.5 -343q0 -85 -14 -167.5t-47.5 -163.5t-83.5 -142t-128 -99t-174 -38q-185 0 -239 159h-17q-35 -69 -103.5 -114t-158.5 -45q-158 0 -261 122t-103 310 q0 192 103.5 310t266.5 118q27 0 52.5 -4.5t45 -11t39.5 -17t33 -19t27 -20.5t21 -18.5t16 -15.5l8 -9q3 10 8 27.5t7.5 24.5t8.5 17.5t13 14.5t18.5 7t28.5 3h27q15 0 27 -12t12 -27v-405q0 -135 35 -184.5t102 -49.5q109 0 180.5 124t71.5 319q0 120 -28 226t-86 194 t-141 151.5t-198.5 99t-253.5 35.5q-355 0 -565.5 -224t-210.5 -609q0 -264 141.5 -462.5t376.5 -297.5q20 -9 24.5 -20t-3.5 -31l-37 -92q-14 -31 -43 -19q-284 111 -459.5 356.5t-175.5 565.5zM762 418q-3 -118 56 -190t147 -72q94 0 141 54t49 144v189q-5 34 -56.5 81.5 t-133.5 47.5q-89 0 -144.5 -68t-58.5 -186z" />
<glyph unicode="A" d="M6 53l629 1379q4 9 15.5 15.5t19.5 6.5h20q8 0 19.5 -6.5t15.5 -15.5l625 -1379q4 -9 4 -18q0 -11 -6 -19q-10 -16 -33 -16h-129q-33 0 -47 31l-127 280h-670q-21 -47 -63 -140t-62 -140q-13 -31 -47 -31h-129q-23 0 -33 16q-6 9 -6 19q0 9 4 18zM422 487h512l-252 562 h-10z" />
<glyph unicode="B" horiz-adv-x="1273" d="M199 39v1356q0 16 11 27.5t28 11.5h458q185 0 305.5 -108.5t120.5 -270.5q0 -108 -63.5 -192.5t-149.5 -133.5q46 -19 87 -45.5t81 -66.5t64 -97.5t24 -124.5q0 -172 -126 -283.5t-320 -111.5h-481q-17 0 -28 11.5t-11 27.5zM406 188h311q94 0 157.5 64.5t63.5 159.5 q0 92 -75 153.5t-177 61.5h-280v-439zM408 811h276q96 0 153.5 62t57.5 157t-57 153t-154 58h-276v-430z" />
<glyph unicode="C" horiz-adv-x="1425" d="M94 715q0 202 99 372t269 268.5t372 98.5q150 0 268 -47.5t227 -142.5q13 -12 13.5 -29t-11.5 -29l-90 -92q-22 -29 -51 0q-73 64 -166.5 100.5t-187.5 36.5q-143 0 -262 -73t-185.5 -195t-66.5 -264t67 -264t186.5 -194.5t262.5 -72.5q104 0 185.5 35t166.5 101 q27 21 49 2l94 -93q10 -10 10 -25q0 -18 -12 -30q-204 -198 -497 -198q-202 0 -372 97.5t-269 266.5t-99 371z" />
<glyph unicode="D" horiz-adv-x="1521" d="M199 39v1356q0 15 11 27t26 12h471q145 0 278 -57t229.5 -153t153.5 -228t57 -277q0 -146 -57 -279.5t-153.5 -229.5t-229 -153t-278.5 -57h-471q-15 0 -26 12t-11 27zM408 195h270q226 0 373 148.5t147 375.5q0 226 -147 373t-373 147h-270v-1044z" />
<glyph unicode="E" horiz-adv-x="1206" d="M199 39v1356q0 16 11 27.5t28 11.5h819q17 0 28 -11.5t11 -27.5v-115q0 -16 -11 -27.5t-28 -11.5h-647v-418h546q15 0 27 -12t12 -27v-114q0 -17 -11.5 -28t-27.5 -11h-546v-441h647q17 0 28 -11.5t11 -26.5v-113q0 -16 -11 -27.5t-28 -11.5h-819q-17 0 -28 11.5 t-11 27.5z" />
<glyph unicode="F" horiz-adv-x="1159" d="M199 39v1356q0 16 11 27.5t28 11.5h819q17 0 28 -11.5t11 -27.5v-115q0 -16 -11 -27.5t-28 -11.5h-647v-473h546q15 0 27 -12t12 -27v-113q0 -15 -12 -26.5t-27 -11.5h-546v-539q0 -15 -12 -27t-27 -12h-133q-17 0 -28 11.5t-11 27.5z" />
<glyph unicode="G" horiz-adv-x="1478" d="M94 715q0 151 58 288t157 235.5t235.5 157t286.5 58.5q276 0 498 -190q12 -12 13 -29t-11 -29q-16 -17 -46.5 -48.5t-45.5 -47.5q-23 -25 -53 2q-74 64 -165 101.5t-183 37.5q-142 0 -261 -73t-186 -195t-67 -264q0 -141 67 -263t186 -195t261 -73q40 0 80.5 5t70 11.5 t59.5 16t46 16t34 13.5l17 8v229h-201q-17 0 -28 11t-11 26v119q0 17 11 28t28 11h373q15 0 26 -12t11 -27q0 -82 1 -248t1 -248q0 -19 -17 -32q-9 -5 -25 -14.5t-68 -32.5t-108 -41t-140 -32.5t-167 -14.5q-150 0 -286.5 57.5t-235.5 155.5t-157 234.5t-58 287.5z" />
<glyph unicode="H" horiz-adv-x="1572" d="M199 39v1356q0 15 12 27t27 12h135q17 0 28 -11.5t11 -27.5v-572h749v572q0 16 11 27.5t28 11.5h135q15 0 27 -12t12 -27v-1356q0 -15 -12 -27t-27 -12h-135q-17 0 -28 11.5t-11 27.5v592h-749v-592q0 -16 -11 -27.5t-28 -11.5h-135q-15 0 -27 12t-12 27z" />
<glyph unicode="I" horiz-adv-x="610" d="M199 39v1356q0 15 12 27t27 12h135q15 0 27 -12t12 -27v-1356q0 -15 -12 -27t-27 -12h-135q-15 0 -27 12t-12 27z" />
<glyph unicode="J" horiz-adv-x="843" d="M-35 129q-8 12 -8 24q0 14 12 27l74 80q16 14 32 14q18 0 34 -18q78 -88 167 -88q84 0 145.5 66t61.5 192v969q0 16 11 27.5t28 11.5h135q17 0 28 -11.5t11 -27.5v-967q0 -209 -117.5 -328.5t-302.5 -119.5q-190 0 -311 149z" />
<glyph unicode="K" horiz-adv-x="1302" d="M199 49v1335q0 21 14 35.5t35 14.5h119q20 0 34.5 -15t14.5 -35v-567l577 596q17 21 39 21h154q28 0 38.5 -25.5t-10.5 -48.5l-591 -602l626 -690q8 -9 8 -21q-1 -9 -5 -21q-10 -26 -40 -26h-163q-28 0 -37 14l-596 672v-637q0 -20 -14.5 -34.5t-34.5 -14.5h-119 q-21 0 -35 14t-14 35z" />
<glyph unicode="L" horiz-adv-x="1021" d="M199 39v1356q0 16 11 27.5t28 11.5h135q15 0 27 -12t12 -27v-1205h555q17 0 28 -11.5t11 -26.5v-113q0 -16 -11 -27.5t-28 -11.5h-729q-17 0 -28 11.5t-11 27.5z" />
<glyph unicode="M" horiz-adv-x="1779" d="M100 47l254 1376q3 12 14 21.5t23 9.5h33q10 0 21 -6.5t14 -15.5l428 -1047h8l426 1047q3 9 13.5 15.5t21.5 6.5h33q12 0 22.5 -9.5t13.5 -21.5l252 -1376q2 -7 2 -14q0 -13 -7 -21q-10 -12 -32 -12h-133q-13 0 -24.5 9t-14.5 20l-151 915h-6l-369 -942q-7 -22 -35 -22 h-37q-27 0 -34 22l-371 942h-8l-148 -915q-2 -11 -13.5 -20t-23.5 -9h-133q-40 0 -40 37q0 4 1 10z" />
<glyph unicode="N" horiz-adv-x="1587" d="M199 39v1378q0 15 12 26t27 11h51l889 -1028h2v969q0 16 11 27.5t28 11.5h131q15 0 27 -12t12 -27v-1379q0 -15 -12 -25.5t-27 -10.5h-54l-888 1056h-2v-997q0 -16 -11 -27.5t-28 -11.5h-129q-15 0 -27 12t-12 27z" />
<glyph unicode="O" horiz-adv-x="1660" d="M94 715q0 101 26 197t73 177t114.5 149t148.5 115.5t176.5 74t196.5 26.5q202 0 371.5 -98.5t268 -268.5t98.5 -372t-98.5 -371t-268 -266.5t-371.5 -97.5q-151 0 -287.5 57.5t-234.5 155.5t-155.5 234.5t-57.5 287.5zM299 715q0 -144 71.5 -266.5t193.5 -193.5t265 -71 q108 0 206.5 42t170 113t114 169.5t42.5 206.5q0 143 -71.5 266t-194.5 195.5t-267 72.5q-143 0 -265.5 -72.5t-193.5 -195.5t-71 -266z" />
<glyph unicode="P" horiz-adv-x="1216" d="M199 39v1356q0 16 11 27.5t28 11.5h467q189 0 323.5 -133.5t134.5 -319.5q0 -125 -61.5 -231t-166.5 -168t-228 -62h-297v-481q0 -15 -12 -27t-27 -12h-133q-17 0 -28 11.5t-11 27.5zM410 721h282q107 0 183.5 76.5t76.5 185.5q0 103 -76.5 174.5t-183.5 71.5h-282v-508z " />
<glyph unicode="Q" horiz-adv-x="1662" d="M94 715q0 101 26 197t73 177t114.5 149t148.5 115.5t176.5 74t196.5 26.5q202 0 371.5 -98.5t268 -268.5t98.5 -372q0 -215 -114.5 -393.5t-303.5 -272.5l248 -393q13 -22 2.5 -42t-35.5 -20h-160q-21 0 -33 21l-221 373q-52 -8 -121 -8q-151 0 -287.5 57.5t-234.5 155.5 t-155.5 234.5t-57.5 287.5zM299 715q0 -144 71.5 -266.5t193.5 -193.5t265 -71q108 0 206.5 42t170 113t114 169.5t42.5 206.5q0 143 -71.5 266t-194.5 195.5t-267 72.5q-143 0 -265.5 -72.5t-193.5 -195.5t-71 -266z" />
<glyph unicode="R" horiz-adv-x="1361" d="M199 39v1356q0 16 11 27.5t28 11.5h557q121 0 223.5 -58.5t162.5 -159.5t60 -221q0 -138 -83 -249t-220 -166l281 -521q11 -20 0.5 -39.5t-35.5 -19.5h-160q-24 0 -33 18l-272 543h-309v-522q0 -15 -12 -27t-27 -12h-133q-17 0 -28 11.5t-11 27.5zM414 737h364 q101 0 175.5 74.5t74.5 179.5q0 99 -75 171.5t-175 72.5h-364v-498z" />
<glyph unicode="S" horiz-adv-x="1099" d="M97 179q0 12 9 28q9 14 27 42.5t27 41.5q14 20 33 24.5t36 -8.5q15 -12 36.5 -27.5t70 -45.5t108 -49t113.5 -19q103 0 167 55t64 135q0 89 -74.5 154t-234.5 131q-69 29 -120 56.5t-101 66t-81.5 81.5t-51 102t-19.5 128q0 50 15 101t49.5 101.5t85 89.5t128 63 t171.5 24q71 0 140 -15.5t121.5 -40.5t76 -38.5t41.5 -26.5q14 -9 19.5 -26.5t-7.5 -42.5q-8 -12 -25.5 -38.5t-25.5 -39.5q-13 -21 -31.5 -27.5t-40.5 6.5q-1 0 -11 6.5t-21.5 13t-30 16.5t-36.5 18.5t-41 18t-44.5 16t-46 10.5t-45.5 4q-61 0 -108 -18t-73 -46.5 t-38.5 -59t-12.5 -61.5q0 -84 63 -143.5t197 -114.5q80 -32 138 -60.5t119 -70t98.5 -86t61.5 -106.5t24 -135q0 -162 -130 -274.5t-327 -112.5q-87 0 -167.5 19.5t-136.5 50.5t-86.5 52t-49.5 39q-11 10 -16 17q-6 7 -6 21z" />
<glyph unicode="T" horiz-adv-x="1003" d="M23 1280v115q0 16 10.5 27.5t27.5 11.5h881q17 0 28 -11.5t11 -27.5v-115q0 -16 -11 -27.5t-28 -11.5h-334v-1202q0 -15 -12 -27t-27 -12h-135q-15 0 -27 12t-12 27v1202h-334q-17 0 -27.5 11.5t-10.5 27.5z" />
<glyph unicode="U" horiz-adv-x="1474" d="M180 535v860q0 15 12 27t27 12h137q17 0 28 -11.5t11 -27.5v-846q0 -157 93 -261t247 -104q155 0 249.5 102.5t94.5 258.5v850q0 16 11 27.5t28 11.5h137q15 0 27 -12t12 -27v-860q0 -154 -71.5 -281t-200 -200.5t-287.5 -73.5q-158 0 -285.5 73.5t-198.5 200.5t-71 281z " />
<glyph unicode="V" horiz-adv-x="1359" d="M8 1380q-4 9 -4 18q0 10 6 19q10 17 33 17h145q11 0 21.5 -7.5t13.5 -15.5l451 -1014h12l451 1014q9 23 34 23h146q23 0 33 -17q6 -9 6 -19q0 -9 -4 -18l-629 -1378q-11 -22 -35 -22h-20q-24 0 -35 22z" />
<glyph unicode="W" horiz-adv-x="1843" d="M68 1384q-2 8 -2 15q0 12 6 21q10 14 32 14h138q12 0 23 -9t14 -20l247 -940h9l333 967q3 9 13 15.5t22 6.5h37q12 0 22 -6.5t13 -15.5l338 -967h8l244 940q3 11 14 20t23 9h137q23 0 33 -14q7 -9 6 -21q0 -7 -2 -15l-387 -1376q-3 -12 -14 -20t-23 -8h-33 q-11 0 -21.5 6.5t-13.5 15.5l-360 1018h-11l-354 -1018q-3 -9 -13.5 -15.5t-21.5 -6.5h-32q-12 0 -23 8t-14 20z" />
<glyph unicode="X" horiz-adv-x="1245" d="M70 18q-5 9 -5 18q0 10 7 21l422 678l-406 641q-12 20 -1.5 39t36.5 19h174q24 0 35 -19l289 -489h2l292 489q9 19 33 19h174q26 0 36.5 -19t-1.5 -39l-405 -641l419 -678q7 -12 7 -23q0 -8 -5 -16q-10 -18 -36 -18h-158q-26 0 -35 18l-321 525h-5l-317 -525 q-13 -18 -35 -18h-157q-27 0 -39 18z" />
<glyph unicode="Y" horiz-adv-x="1175" d="M-2 1414q11 20 35 20h151q19 0 33 -19l371 -522l370 522q14 19 33 19h154q24 0 35 -20q4 -9 4 -19t-6 -21l-486 -682v-653q0 -15 -12 -27t-27 -12h-135q-17 0 -28 11.5t-11 27.5v651l-479 684q-6 11 -6 21t4 19z" />
<glyph unicode="Z" horiz-adv-x="1095" d="M55 39v37l676 1153v8h-577q-15 0 -27 12t-12 27v119q0 15 12 27t27 12h841q15 0 27 -12t12 -27v-27l-678 -1171v-2h598q17 0 28 -11.5t11 -27.5v-117q0 -16 -11 -27.5t-28 -11.5h-860q-15 0 -27 12t-12 27z" />
<glyph unicode="[" horiz-adv-x="690" d="M147 -575v1970q0 15 12 27t27 12h422q15 0 27 -12t12 -27v-90q0 -17 -11.5 -28t-27.5 -11h-274v-1715h274q15 0 27 -10.5t12 -25.5v-90q0 -15 -12 -27t-27 -12h-422q-15 0 -27 12t-12 27z" />
<glyph unicode="\" horiz-adv-x="700" d="M45 1382q-6 22 4.5 37t32.5 15h111q12 0 22.5 -8t13.5 -19l402 -1356q6 -21 -5 -36t-32 -15h-113q-11 0 -22.5 8.5t-14.5 18.5z" />
<glyph unicode="]" horiz-adv-x="690" d="M43 -485q0 15 12 25.5t27 10.5h272v1715h-272q-16 0 -27.5 11t-11.5 28v90q0 15 12 27t27 12h422q15 0 27 -12t12 -27v-1970q0 -15 -12 -27t-27 -12h-422q-15 0 -27 12t-12 27v90z" />
<glyph unicode="^" horiz-adv-x="1073" d="M80 819.5q-10 18.5 2 38.5l420 584q5 8 15.5 14t19.5 6h10q9 0 19.5 -6t15.5 -14l407 -584q12 -20 2 -38.5t-35 -18.5h-104q-20 0 -35 20l-278 389l-283 -389q-12 -20 -37 -20h-104q-25 0 -35 18.5z" />
<glyph unicode="_" horiz-adv-x="817" d="M43 -59q0 17 11 28t28 11h653q17 0 28 -11t11 -28v-58q0 -15 -11 -26t-28 -11h-653q-17 0 -28 11t-11 26v58z" />
<glyph unicode="`" horiz-adv-x="618" d="M121.5 1280q-3.5 14 3.5 29l47 90q7 12 26 12.5t27 -6.5l322 -186q10 -5 13.5 -16t-1.5 -23l-29 -60q-13 -26 -49 -8l-344 148q-12 6 -15.5 20z" />
<glyph unicode="a" horiz-adv-x="866" d="M74 254q0 116 87 190t240 74q38 0 78.5 -6t62.5 -12l21 -6v14q-1 89 -25 126q-26 40 -102 40q-96 0 -229 -37q-34 -8 -45 33l-17 75q-8 36 27 48q14 6 45.5 15t100.5 20.5t137 11.5q55 0 98 -10t73 -26t51.5 -43.5t33.5 -55.5t19 -68.5t9 -76.5t2 -85v-436q0 -15 -12 -27 t-27 -12h-57q-23 0 -35 29l-20 55q-109 -104 -252 -104q-117 0 -190.5 74t-73.5 200zM252 256q0 -57 34.5 -94t90.5 -37t109 33t75 69v131q-15 10 -55 21.5t-88 11.5q-74 0 -120 -36.5t-46 -98.5z" />
<glyph unicode="b" horiz-adv-x="1003" d="M133 39v1356q0 15 12 27t27 12h119q15 0 27 -12t12 -27v-600l23 9q23 9 43.5 16t57 13.5t72.5 6.5q170 0 287 -125t117 -305q0 -178 -110.5 -304t-272.5 -126q-45 0 -88.5 11.5t-73.5 28.5t-53 34t-34 28l-11 12l-17 -59q-10 -35 -37 -35h-61q-15 0 -27 12t-12 27z M328 279q6 -13 18 -29.5t35 -39.5t60.5 -38.5t80.5 -15.5q96 0 156.5 74t60.5 180t-66 179t-167 73q-47 0 -91.5 -12t-65.5 -24l-21 -12v-335z" />
<glyph unicode="c" horiz-adv-x="888" d="M72 408q0 118 60 218t159 157t211 57q179 0 297 -146q10 -14 8 -30t-16 -27l-68 -62q-5 -5 -9.5 -8t-9.5 -3h-8t-8 3.5t-6.5 4.5t-7 6t-6.5 6q-70 78 -164 78q-99 0 -168.5 -73.5t-69.5 -178.5q0 -106 68.5 -180t167.5 -74q22 0 40.5 2.5t36 10t27.5 11t26.5 17 t20.5 16.5t21 20l18 17q27 27 56 4l55 -45q22 -18 22 -35q0 -11 -8 -22q-51 -80 -132.5 -126t-184.5 -46q-114 0 -212 55t-157 154t-59 219z" />
<glyph unicode="d" horiz-adv-x="1003" d="M74 410q0 180 116.5 305t286.5 125q29 0 58 -4t52 -10.5t39.5 -12t31 -11.5t16.5 -7v600q0 15 12 27t27 12h118q15 0 27 -12t12 -27v-1356q0 -15 -12 -27t-27 -12h-61q-26 0 -37 35l-16 59q-4 -5 -11.5 -12.5t-33 -27t-54 -34.5t-72.5 -27.5t-89 -12.5q-162 0 -272.5 126 t-110.5 304zM264 410q0 -106 60.5 -180t156.5 -74q43 0 80.5 15.5t61 38t36 39.5t17.5 30v333q-8 6 -23 14t-61.5 22t-93.5 14q-101 0 -167.5 -73t-66.5 -179z" />
<glyph unicode="e" horiz-adv-x="923" d="M74 410q0 178 114.5 304t294.5 126q161 0 269 -108t108 -271q0 -27 -4 -55q-1 -15 -12 -25t-25 -10h-557q5 -87 72 -153t164 -66q92 0 182 59q16 9 23 12t15.5 1.5t16.5 -11.5l58 -78q25 -29 -5 -53q-50 -43 -129 -72.5t-174 -29.5q-182 0 -296.5 124.5t-114.5 305.5z M272 500h398q-5 74 -60 128t-129 54q-82 0 -141 -52t-68 -130z" />
<glyph unicode="f" horiz-adv-x="686" d="M61 688v92q0 17 11 28t28 11h97v254q0 184 97 282.5t251 98.5q75 0 136.5 -25.5t96.5 -56.5q14 -12 14 -27q0 -9 -6 -20l-51 -92q-7 -13 -21.5 -15t-29.5 9q-74 49 -135 49q-70 0 -112 -51.5t-42 -151.5v-254h221q17 0 28 -11t11 -28v-92q0 -16 -11 -27.5t-28 -11.5h-221 v-610q0 -15 -12 -27t-27 -12h-120q-15 0 -27 12t-12 27v610h-97q-17 0 -28 11.5t-11 27.5z" />
<glyph unicode="g" horiz-adv-x="942" d="M51 49q0 44 15 84.5t36.5 66.5t43 45.5t36.5 28.5l15 9q-7 8 -17.5 24t-28.5 67.5t-18 106.5q0 147 99.5 253t252.5 106h359q17 0 28 -11t11 -28v-51q0 -11 -6.5 -22.5t-16.5 -12.5l-112 -31q4 -3 9.5 -8t21 -24.5t27 -42.5t21 -62t9.5 -82q0 -136 -97.5 -235t-251.5 -99 q-46 0 -86.5 8.5t-64 16.5t-27.5 8q-18 0 -51 -29t-33 -72q0 -36 27 -59.5t72 -23.5h278q139 0 230.5 -73t91.5 -202q0 -141 -120 -240.5t-317 -99.5q-104 0 -184.5 25t-127 66t-70 89.5t-23.5 100.5q0 119 121 192v6q-20 6 -42.5 19t-49 36t-43.5 62.5t-17 87.5zM272 -322 q0 -63 60 -104t153 -41q97 0 165.5 45t68.5 117q0 16 -6 33t-20.5 37.5t-47.5 33.5t-80 13q-106 0 -180 -5q-12 -4 -24 -10t-36 -21t-38.5 -40.5t-14.5 -57.5zM309 477q0 -83 51 -135.5t129 -52.5q77 0 125 52.5t48 135.5t-48.5 136t-124.5 53q-78 0 -129 -53t-51 -136z" />
<glyph unicode="h" horiz-adv-x="1040" d="M133 39v1356q0 15 12 27t27 12h119q15 0 27 -12t12 -27v-643q126 88 245 88q167 0 255 -107t88 -282v-412q0 -15 -12 -27t-27 -12h-115q-17 0 -28 11.5t-11 27.5v416q0 99 -46.5 153t-127.5 54q-83 0 -147 -47t-74 -83v-493q0 -39 -41 -39h-117q-15 0 -27 12t-12 27z" />
<glyph unicode="i" horiz-adv-x="460" d="M111 1272q0 51 33.5 86t82.5 35q51 0 86 -35t35 -86q0 -50 -35 -84.5t-86 -34.5q-49 0 -82.5 34.5t-33.5 84.5zM133 39v741q0 15 12 27t27 12h117q15 0 27 -12t12 -27v-741q0 -15 -12 -27t-27 -12h-117q-15 0 -27 12t-12 27z" />
<glyph unicode="j" horiz-adv-x="462" d="M-264 -531v7q0 10 4 18l51 92q15 27 51 6q76 -51 135 -51q72 0 114 52t42 153v1034q0 17 11.5 28t27.5 11h119q16 0 27.5 -11t11.5 -28v-1034q0 -184 -97 -282.5t-251 -98.5q-76 0 -138.5 25t-95.5 57q-10 7 -12 22zM113 1272q0 51 33.5 86t82.5 35q51 0 86 -35t35 -86 q0 -50 -35 -84.5t-86 -34.5q-49 0 -82.5 34.5t-33.5 84.5z" />
<glyph unicode="k" horiz-adv-x="956" d="M133 39v1356q0 15 12 27t27 12h119q15 0 27 -12t12 -27v-887l319 287q28 24 51 24h144q25 0 31 -21.5t-9 -33.5l-340 -309l402 -402q10 -9 10 -22q0 -5 -2 -11q-6 -20 -31 -20h-168q-25 0 -37 16l-370 381v-358q0 -15 -12 -27t-27 -12h-119q-15 0 -27 12t-12 27z" />
<glyph unicode="l" horiz-adv-x="460" d="M133 39v1356q0 15 12 27t27 12h117q15 0 27 -12t12 -27v-1356q0 -15 -12 -27t-27 -12h-117q-15 0 -27 12t-12 27z" />
<glyph unicode="m" horiz-adv-x="1579" d="M133 39v741q0 15 12 27t27 12h57q25 0 35 -24l23 -70q115 115 270 115q172 0 264 -131q14 14 35.5 31t61.5 42t93 41.5t107 16.5q91 0 158 -30.5t105.5 -85t56.5 -122.5t18 -151v-412q0 -16 -11 -27.5t-28 -11.5h-114q-17 0 -28 11.5t-11 27.5v420q0 97 -43.5 150 t-126.5 53q-30 0 -58.5 -7t-48.5 -16.5t-40 -23t-30.5 -23t-21.5 -20t-12 -11.5q6 -27 6 -98v-424q0 -15 -12 -27t-27 -12h-109q-17 0 -28 11.5t-11 27.5v420q0 99 -44 151t-130 52q-43 0 -81.5 -15t-62.5 -37t-38.5 -40t-19.5 -31v-500q0 -15 -12 -27t-27 -12h-115 q-15 0 -27 12t-12 27z" />
<glyph unicode="n" horiz-adv-x="1040" d="M133 39v741q0 15 12 27t27 12h59q26 0 33 -24l25 -70q9 10 29 25.5t56.5 37.5t90 37t110.5 15q91 0 158.5 -30.5t107 -85t58.5 -122.5t19 -151v-412q0 -15 -12 -27t-27 -12h-117q-17 0 -28 11.5t-11 27.5v420q0 97 -45 150t-125 53q-85 0 -150.5 -45t-76.5 -78v-500 q0 -21 -10.5 -30t-36.5 -9h-107q-15 0 -27 12t-12 27z" />
<glyph unicode="o" horiz-adv-x="970" d="M72 412q0 174 121 301t292 127t292.5 -127t121.5 -301q0 -178 -121.5 -305t-292.5 -127t-292 127t-121 305zM254 412q0 -106 67.5 -181t163.5 -75q97 0 164.5 75t67.5 181q0 103 -68 176.5t-164 73.5t-163.5 -73.5t-67.5 -176.5z" />
<glyph unicode="p" horiz-adv-x="1003" d="M133 -575v1355q0 15 12 27t27 12h61q23 0 35 -26l21 -54q101 101 250 101q167 0 279 -126.5t112 -305.5q0 -180 -116.5 -304t-283.5 -124q-104 0 -200 55v-610q0 -39 -43 -39h-115q-15 0 -27 12t-12 27zM326 215q8 -7 23 -16.5t62 -26t95 -16.5q100 0 166.5 73.5 t66.5 178.5q0 106 -62 180t-163 74q-77 0 -127 -43t-61 -76v-328z" />
<glyph unicode="q" horiz-adv-x="1003" d="M74 408q0 179 112 305.5t279 126.5q149 0 250 -101l20 52q11 28 39 28h57q15 0 27 -12t12 -27v-1355q0 -15 -12 -27t-27 -12h-116q-18 0 -29.5 10.5t-11.5 28.5v612q-1 0 -15.5 -8t-31.5 -15t-41 -15.5t-53.5 -13.5t-59.5 -5q-167 0 -283 124t-116 304zM262 408 q0 -105 67 -178.5t167 -73.5q48 0 93 14t66 28l21 15v322q-6 18 -25.5 44.5t-64.5 54.5t-99 28q-101 0 -163 -74t-62 -180z" />
<glyph unicode="r" horiz-adv-x="688" d="M133 39v741q0 15 12 27t27 12h59q11 0 21.5 -8t13.5 -20l23 -70q9 13 23.5 28t44 38t74.5 38t97 15q43 0 79.5 -7t58.5 -25q15 -12 16 -28q0 -8 -4 -16l-49 -100q-15 -34 -49 -19q-28 14 -70 14q-41 0 -76.5 -13t-58 -32.5t-33.5 -32t-16 -22.5v-520q0 -24 -13.5 -31.5 t-42.5 -7.5h-98q-15 0 -27 12t-12 27z" />
<glyph unicode="s" horiz-adv-x="733" d="M78 614q0 87 72 156.5t208 69.5q145 0 242 -64q14 -9 19 -26.5t-3 -32.5l-36 -70q-7 -13 -24.5 -17.5t-29.5 1.5q-90 43 -168 43q-48 0 -70 -17.5t-22 -44.5q0 -19 8 -34t29 -28.5t38 -22t56 -25.5q54 -24 87 -40.5t72.5 -43t61.5 -53t37 -64t15 -82.5q0 -98 -85 -168.5 t-218 -70.5q-169 0 -271 83q-10 6 -13.5 18.5t1.5 24.5l43 80q6 12 21 16t30 -5q10 -6 28 -15t68.5 -24t94.5 -15q46 0 73 18.5t27 51.5q0 39 -33.5 65.5t-124.5 67.5q-108 47 -170.5 110.5t-62.5 157.5z" />
<glyph unicode="t" horiz-adv-x="708" d="M61 688v92q0 17 11 28t28 11h86v228q0 15 12 26.5t27 11.5l117 2q15 0 26 -11.5t11 -26.5v-230h209q17 0 28 -11t11 -28v-92q0 -16 -11 -27.5t-28 -11.5h-209v-405q0 -49 16 -65.5t49 -16.5q48 0 125 37q32 14 47 -19l37 -90q4 -10 4 -19q0 -19 -22 -30 q-25 -15 -100.5 -38t-139.5 -23q-115 0 -162 62.5t-47 180.5v426h-86q-17 0 -28 11.5t-11 27.5z" />
<glyph unicode="u" horiz-adv-x="1009" d="M121 367v413q0 15 12 27t27 12h116q15 0 27 -12t12 -27v-420q0 -99 44.5 -151.5t123.5 -52.5q80 0 138.5 48.5t64.5 86.5v489q0 23 10.5 31t34.5 8h107q15 0 27 -12t12 -27v-741q0 -15 -12 -27t-27 -12h-58q-26 0 -37 33l-20 59l-10 -9q-10 -9 -17 -15.5t-22.5 -18 t-30 -20t-36.5 -18.5t-44.5 -16t-51 -10.5t-58.5 -4.5q-89 0 -155 30t-103.5 84t-55.5 122t-18 151z" />
<glyph unicode="v" horiz-adv-x="849" d="M22 806q8 14 31 13h121q26 0 37 -22l213 -484h2l221 484q5 11 15 16t17 5.5t23 0.5h95q23 1 31 -13q4 -6 4 -15t-5 -19l-362 -772q-8 -20 -35 -20h-10q-27 0 -35 20l-362 772q-5 11 -5 19q0 9 4 15z" />
<glyph unicode="w" horiz-adv-x="1255" d="M54 806q8 14 30 13h111q11 0 22 -7t14 -17l138 -453h2l219 477q3 8 13.5 14.5t21.5 6.5h12q27 0 35 -21l217 -479h2l135 455q5 12 17.5 17.5t21 6t25.5 0.5h79q22 1 31 -13q4 -7 4 -15.5t-4 -18.5l-239 -772q-7 -20 -37 -20h-9q-27 0 -34 18l-252 547h-2l-250 -547 q-7 -18 -33 -18h-10q-28 0 -35 20l-244 772q-5 11 -5 19q0 9 4 15z" />
<glyph unicode="x" horiz-adv-x="880" d="M52 16q-2 5 -3 11q0 12 10 26l267 365l-258 346q-15 20 -7 37.5t31 17.5h133q33 0 49 -22l164 -236h2l168 236q16 22 47 22h136q27 -1 33 -17q2 -5 1 -10q0 -12 -10 -26l-258 -346l260 -367q9 -13 9 -25q0 -6 -2 -12q-7 -16 -31 -16h-129q-25 0 -43 25l-181 254h-2 l-184 -263q-12 -16 -33 -16h-137q-26 0 -32 16z" />
<glyph unicode="y" horiz-adv-x="948" d="M23 766q-4 10 -4 19q0 10 5 18q10 16 33 16h136q23 0 34 -22l254 -545h2l246 545q10 22 43 22h117q25 0 35 -17q6 -8 6 -16q0 -10 -6 -20l-627 -1356q-12 -24 -35 -24h-123q-23 0 -34 16.5t-1 38.5l275 588z" />
<glyph unicode="z" horiz-adv-x="745" d="M66 39v20l348 584v2h-291q-15 0 -26 12t-11 27v96q0 17 11 28t26 11h528q24 1 35 -17q6 -9 6 -18q0 -10 -6 -20l-346 -590v-2h270q17 0 28 -11t11 -28v-94q0 -16 -11 -27.5t-28 -11.5h-506q-15 0 -26.5 12t-11.5 27z" />
<glyph unicode="{" horiz-adv-x="806" d="M43 367v82q0 11 8.5 20t20.5 12q37 4 90 47.5t53 102.5v295q0 118 32.5 212t83.5 150.5t120 94.5t134 53t134 16q18 2 29.5 -7.5t11.5 -27.5l4 -84q1 -12 -7.5 -23.5t-19.5 -13.5q-142 -25 -233.5 -120.5t-91.5 -249.5v-244q0 -66 -19.5 -119t-50 -83.5t-53 -45.5 t-43.5 -24v-7q22 -10 39.5 -19.5t43 -32t42 -49t29 -70.5t12.5 -97v-246q0 -154 91.5 -248.5t233.5 -119.5q11 -2 19.5 -12.5t7.5 -24.5l-4 -84q0 -15 -13 -26t-28 -9q-69 1 -134 16t-134 52.5t-120 94t-83.5 150t-32.5 211.5v291q0 62 -47 102t-94 48q-12 1 -21.5 13 t-9.5 24z" />
<glyph unicode="|" horiz-adv-x="387" d="M145 -578v2096q0 17 11.5 27.5t27.5 10.5h21q15 0 26 -10.5t11 -27.5v-2096q0 -15 -12 -25.5t-27 -10.5h-19q-15 0 -27 10.5t-12 25.5z" />
<glyph unicode="}" horiz-adv-x="806" d="M43 -516q-1 14 7.5 24.5t19.5 12.5q142 25 233.5 119.5t91.5 248.5v246q0 53 12.5 97t29 70.5t42 49t43 32t39.5 19.5v7q-21 9 -43.5 24t-53 45.5t-50 83.5t-19.5 119v244q0 154 -91.5 249.5t-233.5 120.5q-11 2 -19.5 13.5t-7.5 23.5l4 84q0 18 11.5 27.5t29.5 7.5 q69 -1 134 -16t134 -53t120 -94.5t83.5 -150.5t32.5 -212v-295q0 -59 53 -102.5t90 -47.5q12 -3 20.5 -12t8.5 -20v-82q0 -12 -9.5 -24t-21.5 -13q-47 -8 -94 -48t-47 -102v-291q0 -118 -32.5 -211.5t-83.5 -150t-120 -94t-134 -52.5t-134 -16q-15 -2 -28 9t-13 26z" />
<glyph unicode="~" horiz-adv-x="1114" d="M88 543q5 8 15 21t41 47t63 60t79.5 47t92.5 21q42 0 86 -16.5t63.5 -29t63.5 -42.5q94 -67 149 -67q29 0 55 11.5t48 33t33 35.5t26 36q12 15 28 17t30 -10l65 -60q11 -9 12 -23.5t-8 -25.5q-5 -8 -14.5 -21t-40.5 -46.5t-62.5 -59.5t-79 -47t-92.5 -21q-17 0 -34.5 2.5 t-30 5t-31 10.5t-26.5 11t-27.5 15t-23 14t-24.5 17l-22 14q-3 2 -17 12t-19 13t-18 11.5t-21.5 12t-20.5 8t-23.5 6.5t-23.5 2q-85 0 -162 -117q-10 -15 -26.5 -16.5t-28.5 10.5q-13 12 -35.5 30.5t-34.5 29.5q-23 27 -4 49z" />
<glyph unicode="&#xa1;" horiz-adv-x="468" d="M92 698q0 59 42 100.5t102 41.5q57 0 99 -42t42 -100q0 -60 -41.5 -101.5t-99.5 -41.5q-60 0 -102 41.5t-42 101.5zM113 -346l59 575q2 12 14 22.5t25 10.5h45q13 0 25 -10.5t14 -22.5l59 -571v-233q0 -15 -12 -27t-27 -12h-163q-15 0 -27 12t-12 27v229z" />
<glyph unicode="&#xa2;" horiz-adv-x="858" d="M47 408q0 118 60 218t159 157t211 57q22 0 58 -4l22 84q5 15 18.5 22.5t28.5 3.5l21 -6q15 -3 22.5 -16.5t3.5 -30.5l-22 -84q78 -35 145 -115q10 -14 8 -30t-16 -27l-68 -62q-5 -5 -9.5 -8t-9.5 -3h-8t-8 3.5t-6.5 4.5t-7 6t-6.5 6q-26 29 -63 47l-127 -473h24 q15 0 29.5 1.5t26 3.5t24 7t20.5 8.5t19 10.5t16 10.5t15.5 12.5t14 12.5t14 13.5t12.5 12q26 26 55 4l55 -45q35 -28 15 -57q-51 -80 -133 -126t-185 -46q-35 0 -69 6l-54 -199q-3 -15 -17.5 -22.5t-29.5 -4.5l-18 7q-15 3 -23.5 16.5t-5.5 28.5l53 200q-118 47 -191 153.5 t-73 242.5zM242 410q0 -71 31.5 -130t86.5 -92l125 469h-6q-100 0 -168.5 -71.5t-68.5 -175.5z" />
<glyph unicode="&#xa3;" horiz-adv-x="1011" d="M102 637v20q0 15 11 27t26 12h66q-3 14 -22 80t-30.5 128t-11.5 122q0 195 122.5 311.5t307.5 116.5q183 0 347 -145q12 -9 13 -25.5t-9 -28.5l-72 -88q-26 -35 -57 -4q-5 4 -13 11.5t-33 26t-50.5 32.5t-60.5 25.5t-67 11.5q-97 0 -163 -66.5t-66 -173.5 q0 -57 15 -121.5t34.5 -126t24.5 -86.5h286q17 0 28 -11.5t11 -27.5v-22q0 -15 -11 -26t-28 -11h-266q15 -69 6.5 -198.5t-43.5 -221.5h457q15 0 26 -11t11 -28v-100q0 -15 -11 -27t-26 -12h-664q-15 0 -26.5 12t-11.5 27v37q129 245 77 522h-90q-15 0 -26 12t-11 27z" />
<glyph unicode="&#xa4;" horiz-adv-x="950" d="M128 433q0 17 11 28l92 90q-32 62 -32 129t32 127l-90 92q-11 11 -11 28t11 27l62 60q11 10 28 10t27 -10l90 -90q59 33 127 33t129 -33l90 92q11 10 27.5 9.5t28.5 -11.5l59 -62q11 -11 11.5 -26.5t-9.5 -26.5l-90 -90q32 -60 32 -129.5t-32 -130.5l90 -90 q11 -11 11 -27t-11 -26l-61 -62q-11 -11 -27 -11.5t-27 9.5l-92 92q-60 -32 -129 -32t-129 34l-90 -92q-10 -10 -27 -10t-28 10l-62 62q-11 10 -11 27zM348 680q0 -54 37.5 -91.5t91.5 -37.5t91.5 37.5t37.5 91.5t-37.5 91.5t-91.5 37.5t-91.5 -37.5t-37.5 -91.5z" />
<glyph unicode="&#xa5;" horiz-adv-x="1277" d="M47.5 1414q10.5 20 34.5 20h154q18 0 32 -19l371 -522l371 522q14 19 32 19h154q24 0 34.5 -20t-1.5 -40l-488 -682v-100h244q17 0 28 -11.5t11 -27.5v-23q0 -15 -11 -25.5t-28 -10.5h-244v-148h244q17 0 28 -11.5t11 -27.5v-22q0 -15 -11 -26t-28 -11h-244v-209 q0 -15 -12 -27t-27 -12h-133q-17 0 -28 11.5t-11 27.5v209h-247q-15 0 -26 12t-11 27v20q0 15 11 27t26 12h247v148h-247q-15 0 -26 11.5t-11 26.5v21q0 15 11 27t26 12h247v98l-481 684q-12 20 -1.5 40z" />
<glyph unicode="&#xa6;" horiz-adv-x="681" d="M293 100q0 17 11.5 28t27.5 11h20q15 0 26 -11t11 -28v-678q0 -15 -12 -25.5t-27 -10.5h-18q-15 0 -27 10.5t-12 25.5v678zM293 840v678q0 17 11.5 27.5t27.5 10.5h20q15 0 26 -10.5t11 -27.5v-678q0 -15 -12 -26t-27 -11h-18q-15 0 -27 11t-12 26z" />
<glyph unicode="&#xa7;" horiz-adv-x="1060" d="M75 -313q0 14 13 30l51 80q30 43 68 10l13 -10q12 -10 28.5 -21t40 -26t50.5 -28.5t57 -25.5t64 -19t66 -7q85 0 151.5 42.5t72.5 117.5q6 91 -67.5 159.5t-233.5 135.5q-169 71 -267 169t-98 238q0 28 6 55t14 48t21.5 43.5t24 36.5t27.5 31.5t25 24.5t23 19l15 13 q-1 1 -12.5 11t-18.5 17t-21 21.5t-24 28t-23.5 32t-22.5 38.5t-17.5 43t-12.5 49t-4 53q0 49 15.5 98t50 96t84.5 83.5t124.5 58.5t163.5 22q70 0 138.5 -16t117.5 -39t75.5 -38.5t39.5 -25.5q13 -8 19 -24t-5 -41l-57 -84q-24 -38 -68 -10l-10 6q-10 7 -18.5 11.5 t-23.5 13t-29 15.5t-32.5 15t-36.5 14t-37.5 11.5t-39.5 8.5t-39 3q-112 0 -170.5 -52t-58.5 -116q0 -74 63.5 -132.5t190.5 -109.5q80 -33 136.5 -60t117 -66t97 -80t60 -96.5t23.5 -119.5q0 -27 -6 -55t-14.5 -49.5t-23.5 -45t-26 -39t-28.5 -34t-25.5 -26.5t-23 -21 l-15 -14q162 -138 162 -305q0 -155 -129.5 -260t-317.5 -105q-69 0 -136 14.5t-112.5 33t-87.5 44t-61 40.5t-33 28q-12 11 -17.5 18t-5.5 21zM283 545q0 -30 7.5 -55.5t28 -48.5t39 -39t58 -37.5t65.5 -34.5t82 -38.5t88 -41.5q4 2 11.5 6.5t26 21t32.5 35.5t25.5 51 t11.5 68q0 42 -19 76t-64.5 65.5t-96.5 57t-138 61.5q-30 13 -59 23l-9 -7q-9 -6 -19 -14t-23 -23t-23 -32t-17 -42t-7 -52z" />
<glyph unicode="&#xa8;" horiz-adv-x="847" d="M129 1276q0 49 33.5 83t81.5 34q49 0 82.5 -33.5t33.5 -83.5q0 -48 -33.5 -81.5t-82.5 -33.5q-47 0 -81 34t-34 81zM532 1276q0 49 33.5 83t81.5 34q49 0 83 -33.5t34 -83.5q0 -48 -34 -81.5t-83 -33.5q-47 0 -81 34t-34 81z" />
<glyph unicode="&#xa9;" horiz-adv-x="1662" d="M96 717q0 200 98.5 369.5t267.5 268.5t369 99q150 0 286.5 -58.5t235.5 -157.5t157.5 -235t58.5 -286q0 -120 -37.5 -232t-106 -202.5t-159 -158.5t-203 -105t-232.5 -37q-200 0 -369 98.5t-267.5 267.5t-98.5 369zM238 717q0 -121 47 -231t126 -189.5t189 -126.5 t231 -47q162 0 299 79.5t216 216.5t79 298q0 122 -47 232t-126 189t-189 126t-232 47q-161 0 -297.5 -79t-216 -216t-79.5 -299zM467 713q0 161 112 273t271 112q135 0 235 -78q14 -12 15.5 -28.5t-10.5 -30.5l-54 -58q-18 -26 -53 -4q-58 41 -131 41q-92 0 -153.5 -65 t-61.5 -156q0 -94 61 -157.5t154 -63.5q71 0 127 39q35 21 55 -5l58 -59q11 -12 10.5 -28.5t-12.5 -28.5q-102 -86 -240 -86q-158 0 -270.5 112.5t-112.5 270.5z" />
<glyph unicode="&#xaa;" horiz-adv-x="636" d="M57 1024q0 86 64 140.5t176 54.5q28 0 57 -4.5t44 -9.5l16 -5q0 76 -17 105.5t-73 29.5q-24 0 -52 -4t-45 -8t-42 -10.5t-29 -7.5q-26 -7 -33 26l-10 51q-6 26 16 35q7 4 33 12t76 16.5t100 8.5q67 0 110.5 -19t64 -58.5t27.5 -82.5t7 -108v-320q0 -12 -9 -20t-20 -8h-45 q-18 0 -27 20q-2 7 -7 21.5t-7 21.5q-25 -23 -42.5 -36.5t-56.5 -28.5t-83 -15q-84 0 -138.5 56t-54.5 147zM186 1026q0 -39 25.5 -65.5t64.5 -26.5q42 0 80.5 24t53.5 52v90q-32 24 -109 24q-48 0 -81.5 -28t-33.5 -70z" />
<glyph unicode="&#xab;" horiz-adv-x="907" d="M72 397q-17 23 0 49l223 304q14 24 37 24h71q26 0 34.5 -19t-3.5 -44l-145 -285l139 -301q11 -25 2.5 -43.5t-33.5 -18.5h-82q-17 0 -30 17zM442 397q-17 23 0 49l224 304q14 24 36 24h72q26 0 34.5 -19t-3.5 -44l-146 -285l140 -301q11 -25 2.5 -43.5t-33.5 -18.5h-82 q-18 0 -31 17z" />
<glyph unicode="&#xac;" horiz-adv-x="1046" d="M61 668v86q0 15 12 27t27 12h791q16 0 27.5 -12.5t11.5 -26.5v-441q0 -15 -12 -26t-27 -11h-86q-15 0 -27 11t-12 26v316h-666q-15 0 -27 12t-12 27z" />
<glyph unicode="&#xad;" horiz-adv-x="710" d="M94 459v88q0 17 11 28t28 11h442q17 0 28 -11t11 -28v-88q0 -15 -11 -26t-28 -11h-442q-17 0 -28 11t-11 26z" />
<glyph unicode="&#xae;" horiz-adv-x="1667" d="M96 717q0 200 98.5 369.5t267.5 268.5t369 99q150 0 286.5 -58.5t235.5 -157.5t157.5 -235t58.5 -286q0 -120 -37.5 -232t-106 -202.5t-159 -158.5t-203 -105t-232.5 -37q-200 0 -369 98.5t-267.5 267.5t-98.5 369zM238 717q0 -121 47 -231t126 -189.5t189 -126.5 t231 -47q162 0 299 79.5t216 216.5t79 298q0 122 -47 232t-126 189t-189 126t-232 47q-161 0 -297.5 -79t-216 -216t-79.5 -299zM567 383v672q0 16 11 27.5t28 11.5h303q102 0 177 -65.5t75 -176.5q0 -167 -155 -225q6 -12 108 -228q10 -20 -1.5 -37.5t-33.5 -17.5h-92 q-11 0 -21.5 9t-15.5 20l-102 241h-127v-231q0 -16 -11 -27.5t-28 -11.5h-76q-17 0 -28 11.5t-11 27.5zM717 750h182q45 0 73.5 29t28.5 71q0 44 -28 72t-74 28h-182v-200z" />
<glyph unicode="&#xaf;" horiz-adv-x="847" d="M123 1217v57q0 17 11 28t28 11h524q17 0 28 -11t11 -28v-57q0 -15 -11 -26t-28 -11h-524q-17 0 -28 11t-11 26z" />
<glyph unicode="&#xb0;" horiz-adv-x="655" d="M51 1178q0 115 80.5 195.5t196.5 80.5q114 0 195 -80.5t81 -195.5t-81 -196t-195 -81q-116 0 -196.5 80.5t-80.5 196.5zM190 1178q0 -54 42 -96t96 -42q51 0 91 42t40 96q0 51 -40 91t-91 40q-54 0 -96 -40t-42 -91z" />
<glyph unicode="&#xb1;" horiz-adv-x="1175" d="M154 145v86q0 15 12 27t27 12h792q15 0 26 -12t11 -27v-86q0 -15 -11 -27t-26 -12h-792q-15 0 -27 12t-12 27zM154 803v86q0 15 12 27t27 12h313v303q0 15 12 26t27 11h86q15 0 27 -11t12 -26v-303h315q15 0 26 -12t11 -27v-86q0 -15 -11 -27t-26 -12h-315v-225 q0 -15 -12 -26t-27 -11h-86q-15 0 -27 11t-12 26v225h-313q-15 0 -27 12t-12 27z" />
<glyph unicode="&#xb2;" horiz-adv-x="598" d="M74 1051v30l241 267q60 63 60 108q0 34 -26.5 59t-74.5 25q-57 0 -108 -51q-14 -13 -29 2l-43 53q-14 22 4 33q5 5 12 11t27 20t40.5 24t52 18.5t63.5 8.5q102 0 160.5 -52t58.5 -134q0 -83 -88 -181l-137 -149h205q18 0 18 -21v-71q0 -19 -18 -19h-398q-20 0 -20 19z " />
<glyph unicode="&#xb3;" horiz-adv-x="571" d="M68 1087q-16 13 0 29l43 51q13 13 30 0l5 -4q6 -4 13.5 -8.5t19 -10t23 -10t27 -7.5t29.5 -3q44 0 74 21.5t30 56.5q0 36 -31 60t-91 24h-62q-26 0 -26 23v57q0 25 26 25h62q52 0 80 20.5t28 54.5t-27.5 56t-66.5 22q-52 0 -98 -41q-15 -12 -29 2l-45 49q-6 6 -6 15.5 t8 15.5q8 8 23 20.5t63.5 33t99.5 20.5q95 0 156 -46.5t61 -123.5q0 -50 -32 -89t-72 -54v-5q46 -18 84.5 -57.5t38.5 -95.5q0 -79 -66.5 -127.5t-169.5 -48.5q-127 0 -202 75z" />
<glyph unicode="&#xb4;" horiz-adv-x="618" d="M119.5 1203q3.5 11 13.5 16l322 186q8 7 27 6.5t26 -12.5l47 -90q7 -15 3.5 -29t-15.5 -20l-344 -148q-36 -18 -49 8l-29 60q-5 12 -1.5 23z" />
<glyph unicode="&#xb5;" horiz-adv-x="1050" d="M137 -575v1355q0 15 12 27t27 12h117q15 0 27 -12t12 -27v-411q0 -99 44.5 -152t123.5 -53q80 0 138 48.5t64 86.5v481q0 23 11 31t35 8h106q15 0 27 -12t12 -27v-741q0 -15 -12 -27t-27 -12h-57q-26 0 -37 33l-21 59l-10 -9q-10 -9 -17 -15.5t-22.5 -18t-30 -20 t-36.5 -18.5t-44.5 -16t-51 -10.5t-58.5 -4.5q-78 0 -139 22v-577q0 -15 -12 -27t-27 -12h-115q-15 0 -27 12t-12 27z" />
<glyph unicode="&#xb6;" horiz-adv-x="1431" d="M43 1006q0 176 115.5 302t281.5 126l920 -2q15 0 27 -12t12 -27v-68q0 -17 -11.5 -28t-27.5 -11h-193v-1861q0 -16 -11 -27.5t-28 -11.5h-77q-15 0 -27 12t-12 27v1861h-299v-1861q0 -15 -12 -27t-27 -12h-76q-15 0 -27 12t-12 27v1150h-90q-175 0 -300.5 125.5 t-125.5 305.5z" />
<glyph unicode="&#xb7;" horiz-adv-x="485" d="M92 651q0 64 44 109t106 45q63 0 107 -45t44 -109q0 -61 -44.5 -105t-106.5 -44q-61 0 -105.5 44.5t-44.5 104.5z" />
<glyph unicode="&#xb8;" horiz-adv-x="505" d="M59 -432q1 15 13 26l34 29q10 8 24.5 7.5t21.5 -9.5q27 -31 73 -31q35 0 57.5 25t22.5 61q0 97 -160 115q-34 7 -34 39v170h122v-109q95 -12 151 -67.5t56 -142.5q0 -89 -62 -151t-153 -62q-45 0 -86.5 19.5t-68.5 51.5q-12 14 -11 29z" />
<glyph unicode="&#xb9;" horiz-adv-x="395" d="M37 1509q0 13 10 23l148 106h81q8 0 13.5 -5.5t5.5 -12.5v-569q0 -7 -5.5 -13t-13.5 -6h-100q-9 0 -14.5 5.5t-5.5 13.5v411l-93 -14q-18 -4 -18 12z" />
<glyph unicode="&#xba;" horiz-adv-x="643" d="M63 1130q0 153 67.5 238.5t191.5 85.5t191 -85.5t67 -238.5q0 -152 -67 -236.5t-191 -84.5t-191.5 84.5t-67.5 236.5zM209 1130q0 -95 29.5 -145.5t83.5 -50.5t84 50.5t30 145.5t-30 147t-84 52t-83.5 -52t-29.5 -147z" />
<glyph unicode="&#xbb;" horiz-adv-x="907" d="M96.5 755q8.5 19 34.5 19h72q23 0 37 -24l223 -304q17 -26 0 -49l-213 -317q-13 -17 -31 -17h-82q-25 0 -33.5 18.5t2.5 43.5l140 301l-146 285q-12 25 -3.5 44zM467.5 755q8.5 19 34.5 19h71q23 0 37 -24l224 -304q17 -26 0 -49l-213 -317q-13 -17 -31 -17h-82 q-25 0 -33.5 18.5t2.5 43.5l139 301l-145 285q-12 25 -3.5 44z" />
<glyph unicode="&#xbc;" horiz-adv-x="1327" d="M57 1305q0 11 11 22l147 107h82q7 0 12.5 -5.5t5.5 -13.5v-569q0 -8 -5.5 -13.5t-12.5 -5.5h-100q-9 0 -15 5.5t-6 13.5v411l-92 -14q-18 -4 -18 12zM180 55l703 1358q14 21 35 21h67q23 0 34.5 -18t0.5 -38l-707 -1358q-3 -6 -15 -13t-19 -7h-64q-23 0 -34 17.5t-1 37.5 zM682 135v82l342 383q6 6 16 6h64q8 0 14 -5.5t6 -12.5v-365h82q7 0 13 -5t6 -11v-70q0 -7 -5.5 -12.5t-13.5 -5.5h-82v-101q0 -7 -6 -12.5t-14 -5.5h-90q-8 0 -14.5 5.5t-6.5 12.5v101h-293q-7 0 -12.5 5t-5.5 11zM813 223h184v207z" />
<glyph unicode="&#xbd;" horiz-adv-x="1316" d="M57 1305q0 11 11 22l147 107h82q7 0 12.5 -5.5t5.5 -13.5v-569q0 -8 -5.5 -13.5t-12.5 -5.5h-100q-9 0 -15 5.5t-6 13.5v411l-92 -14q-18 -4 -18 12zM180 55l703 1358q14 21 35 21h67q23 0 34.5 -18t0.5 -38l-707 -1358q-3 -6 -15 -13t-19 -7h-64q-23 0 -34 17.5t-1 37.5 zM754 18v31l241 266q60 63 60 109q0 34 -26.5 59t-74.5 25q-57 0 -108 -51q-14 -13 -29 2l-43 53q-14 22 4 33q5 5 12 11t27 20t40.5 24t52 18.5t63.5 8.5q102 0 160.5 -52.5t58.5 -134.5t-88 -180l-137 -149h204q19 0 19 -21v-72q0 -18 -19 -18h-397q-20 0 -20 18z" />
<glyph unicode="&#xbe;" horiz-adv-x="1411" d="M78 883q-16 12 0 28l43 52q14 14 31 0l6 -4q5 -4 12 -8.5t18.5 -10t23 -10t27 -7.5t29.5 -3q44 0 74.5 21.5t30.5 55.5q0 36 -31.5 60t-91.5 24h-62q-26 0 -26 23v57q0 25 26 25h62q52 0 80 21t28 55t-27.5 55.5t-66.5 21.5q-52 0 -98 -41q-15 -12 -29 2l-45 50 q-6 6 -6 15t8 15q8 8 23 20.5t64 33t100 20.5q95 0 156 -46.5t61 -123.5q0 -50 -32.5 -89t-72.5 -54v-4q45 -17 84 -57.5t39 -96.5q0 -79 -66.5 -127.5t-168.5 -48.5q-127 0 -203 76zM264 55l703 1358q14 21 34 21h68q23 0 34.5 -18t0.5 -38l-707 -1358q-3 -6 -15 -13 t-20 -7h-63q-23 0 -34 17.5t-1 37.5zM766 135v82l342 383q6 6 16 6h64q8 0 14 -5.5t6 -12.5v-365h82q7 0 13 -5t6 -11v-70q0 -7 -5.5 -12.5t-13.5 -5.5h-82v-101q0 -7 -6 -12.5t-14 -5.5h-90q-8 0 -14.5 5.5t-6.5 12.5v101h-293q-7 0 -12.5 5t-5.5 11zM897 223h184v207z" />
<glyph unicode="&#xbf;" horiz-adv-x="514" d="M-143 -305q0 61 23.5 113t58.5 86.5t76.5 68t76.5 59t58.5 57.5t23.5 66v76q0 20 12 30.5t31 10.5h111q16 0 27.5 -11t11.5 -28v-86q0 -45 -16.5 -84t-42.5 -67.5t-57.5 -55t-63.5 -51t-58 -50t-42.5 -59t-16.5 -71.5q0 -66 49 -112t135 -46q41 0 76.5 8.5t64 25.5 t45.5 29.5t39.5 34t26.5 25.5q24 21 49 0l68 -65q24 -21 0 -54q-5 -7 -15.5 -19.5t-47 -43.5t-78 -54.5t-109 -43t-140.5 -19.5q-161 0 -268.5 92.5t-107.5 237.5zM131 698q0 59 41.5 100.5t101.5 41.5q58 0 100 -42t42 -100q0 -60 -41.5 -101.5t-100.5 -41.5 q-60 0 -101.5 41.5t-41.5 101.5z" />
<glyph unicode="&#xc0;" d="M6 53l629 1379q4 9 15.5 15.5t19.5 6.5h20q8 0 19.5 -6.5t15.5 -15.5l625 -1379q9 -20 -1.5 -36.5t-33.5 -16.5h-129q-33 0 -47 31l-127 280h-670q-21 -47 -63 -140t-62 -140q-13 -31 -47 -31h-129q-23 0 -33.5 16.5t-1.5 36.5zM422 487h512l-252 562h-10zM459.5 1753 q-3.5 14 3.5 29l47 90q7 12 26 12.5t27 -6.5l322 -186q10 -5 13.5 -16t-1.5 -23l-29 -58q-11 -26 -49 -10l-344 148q-12 6 -15.5 20z" />
<glyph unicode="&#xc1;" d="M6 53l629 1379q4 9 15.5 15.5t19.5 6.5h20q8 0 19.5 -6.5t15.5 -15.5l625 -1379q9 -20 -1.5 -36.5t-33.5 -16.5h-129q-33 0 -47 31l-127 280h-670q-21 -47 -63 -140t-62 -140q-13 -31 -47 -31h-129q-23 0 -33.5 16.5t-1.5 36.5zM422 487h512l-252 562h-10zM458 1676.5 q4 10.5 13 15.5l322 186q8 7 27 6.5t26 -12.5l47 -90q8 -15 4.5 -29t-16.5 -20l-344 -148q-38 -17 -50 10l-28 58q-5 13 -1 23.5z" />
<glyph unicode="&#xc2;" d="M6 53l629 1379q4 9 15.5 15.5t19.5 6.5h20q8 0 19.5 -6.5t15.5 -15.5l625 -1379q9 -20 -1.5 -36.5t-33.5 -16.5h-129q-33 0 -47 31l-127 280h-670q-21 -47 -63 -140t-62 -140q-13 -31 -47 -31h-129q-23 0 -33.5 16.5t-1.5 36.5zM391.5 1655.5q4.5 10.5 14.5 17.5l256 201 q9 8 24 8t25 -8l256 -201q10 -7 14 -17.5t-2 -21.5l-41 -55q-10 -13 -18.5 -15t-28.5 9l-205 133l-205 -133q-19 -10 -28.5 -8.5t-18.5 14.5l-41 55q-6 11 -1.5 21.5zM422 487h512l-252 562h-10z" />
<glyph unicode="&#xc3;" d="M6 53l629 1379q4 9 15.5 15.5t19.5 6.5h20q8 0 19.5 -6.5t15.5 -15.5l625 -1379q9 -20 -1.5 -36.5t-33.5 -16.5h-129q-33 0 -47 31l-127 280h-670q-21 -47 -63 -140t-62 -140q-13 -31 -47 -31h-129q-23 0 -33.5 16.5t-1.5 36.5zM373 1700l16.5 33t26.5 42t40 48.5t51 33 t66 15.5q40 0 75.5 -20.5t56.5 -45t46 -45t46 -20.5q16 0 30.5 9.5t21 18.5t18 29t14.5 25q21 35 51 18q5 -4 17 -11t21.5 -14t14.5 -14q11 -17 -6 -55q-10 -22 -23.5 -44t-37 -49t-58 -44t-74.5 -17q-35 0 -69.5 21t-57 45.5t-48 45.5t-44.5 21q-51 0 -88 -84 q-8 -19 -17 -24t-30 4l-47 31q-26 15 -12 47zM422 487h512l-252 562h-10z" />
<glyph unicode="&#xc4;" d="M6 53l629 1379q4 9 15.5 15.5t19.5 6.5h20q8 0 19.5 -6.5t15.5 -15.5l625 -1379q9 -20 -1.5 -36.5t-33.5 -16.5h-129q-33 0 -47 31l-127 280h-670q-21 -47 -63 -140t-62 -140q-13 -31 -47 -31h-129q-23 0 -33.5 16.5t-1.5 36.5zM326 1718q0 47 33.5 81t80.5 34t82 -34 t35 -81t-35 -81.5t-82 -34.5t-80.5 34.5t-33.5 81.5zM422 487h512l-252 562h-10zM795 1718q0 47 33.5 81t80.5 34t82 -34t35 -81t-35 -81.5t-82 -34.5t-80.5 34.5t-33.5 81.5z" />
<glyph unicode="&#xc5;" d="M6 53l629 1379q4 9 15.5 15.5t19.5 6.5h20q8 0 19.5 -6.5t15.5 -15.5l625 -1379q9 -20 -1.5 -36.5t-33.5 -16.5h-129q-33 0 -47 31l-127 280h-670q-21 -47 -63 -140t-62 -140q-13 -31 -47 -31h-129q-23 0 -33.5 16.5t-1.5 36.5zM422 487h512l-252 562h-10zM449 1776 q0 95 66 161t161 66q94 0 160.5 -66t66.5 -161t-66.5 -161.5t-160.5 -66.5q-95 0 -161 66.5t-66 161.5zM561 1776q0 -45 33.5 -80t81.5 -35q44 0 76 35t32 80q0 44 -32 76t-76 32q-47 0 -81 -32t-34 -76z" />
<glyph unicode="&#xc6;" horiz-adv-x="1837" d="M-23.5 16.5q-6.5 16.5 5.5 36.5l821 1317q2 3 7.5 11.5t7 11t6.5 9t7 8.5l7 7t8.5 6.5t9 4.5t10.5 3.5t12 1.5t15 1h795q17 0 27.5 -11.5t10.5 -27.5v-115q0 -16 -10.5 -27.5t-27.5 -11.5h-656v-418h555q15 0 27 -12t12 -27v-114q0 -17 -11.5 -28t-27.5 -11h-555v-441 h656q17 0 27.5 -11t10.5 -27v-113q0 -16 -10.5 -27.5t-27.5 -11.5h-822q-17 0 -28 11.5t-11 27.5v272h-454l-178 -284q-19 -27 -45 -27h-144q-23 0 -29.5 16.5zM479 487h348v562z" />
<glyph unicode="&#xc7;" horiz-adv-x="1429" d="M96 715q0 202 99 372t269 268.5t372 98.5q150 0 268 -47.5t227 -142.5q13 -12 13.5 -29t-11.5 -29l-90 -92q-22 -29 -51 0q-73 64 -166.5 100.5t-187.5 36.5q-143 0 -262 -73t-185.5 -195t-66.5 -264t67 -264t186.5 -194.5t262.5 -72.5q104 0 185.5 35t166.5 101 q27 21 49 2l94 -93q11 -11 10 -27.5t-12 -27.5q-204 -198 -495 -198v-89q95 -12 150.5 -67.5t55.5 -142.5q0 -89 -62 -151t-153 -62q-45 0 -86.5 19.5t-68.5 51.5q-12 14 -11 29t13 26l35 29q10 8 24 7.5t21 -9.5q27 -31 73 -31q35 0 57.5 25t22.5 61q0 97 -159 115 q-35 7 -35 39v160q-174 27 -315.5 128.5t-222.5 258.5t-81 338z" />
<glyph unicode="&#xc8;" horiz-adv-x="1206" d="M199 39v1356q0 16 11 27.5t28 11.5h819q17 0 28 -11.5t11 -27.5v-115q0 -16 -11 -27.5t-28 -11.5h-647v-418h546q15 0 27 -12t12 -27v-114q0 -17 -11.5 -28t-27.5 -11h-546v-441h647q17 0 28 -11.5t11 -26.5v-113q0 -16 -11 -27.5t-28 -11.5h-819q-17 0 -28 11.5 t-11 27.5zM422.5 1753q-3.5 14 3.5 29l47 90q7 12 26 12.5t27 -6.5l322 -186q10 -5 13.5 -16t-1.5 -23l-29 -58q-11 -26 -49 -10l-344 148q-12 6 -15.5 20z" />
<glyph unicode="&#xc9;" horiz-adv-x="1206" d="M199 39v1356q0 16 11 27.5t28 11.5h819q17 0 28 -11.5t11 -27.5v-115q0 -16 -11 -27.5t-28 -11.5h-647v-418h546q15 0 27 -12t12 -27v-114q0 -17 -11.5 -28t-27.5 -11h-546v-441h647q17 0 28 -11.5t11 -26.5v-113q0 -16 -11 -27.5t-28 -11.5h-819q-17 0 -28 11.5 t-11 27.5zM423 1676.5q4 10.5 13 15.5l322 186q8 7 27 6.5t26 -12.5l47 -90q8 -15 4.5 -29t-16.5 -20l-344 -148q-37 -17 -49 10l-29 58q-5 13 -1 23.5z" />
<glyph unicode="&#xca;" horiz-adv-x="1206" d="M199 39v1356q0 16 11 27.5t28 11.5h819q17 0 28 -11.5t11 -27.5v-115q0 -16 -11 -27.5t-28 -11.5h-647v-418h546q15 0 27 -12t12 -27v-114q0 -17 -11.5 -28t-27.5 -11h-546v-441h647q17 0 28 -11.5t11 -26.5v-113q0 -16 -11 -27.5t-28 -11.5h-819q-17 0 -28 11.5 t-11 27.5zM342 1657.5q4 10.5 14 17.5l256 201q9 8 24.5 8t25.5 -8l256 -201q10 -7 14 -17.5t-2 -21.5l-41 -55q-10 -13 -18.5 -15t-28.5 9l-205 133l-205 -133q-19 -10 -28.5 -8.5t-18.5 14.5l-41 55q-6 11 -2 21.5z" />
<glyph unicode="&#xcb;" horiz-adv-x="1206" d="M199 39v1356q0 16 11 27.5t28 11.5h819q17 0 28 -11.5t11 -27.5v-115q0 -16 -11 -27.5t-28 -11.5h-647v-418h546q15 0 27 -12t12 -27v-114q0 -17 -11.5 -28t-27.5 -11h-546v-441h647q17 0 28 -11.5t11 -26.5v-113q0 -16 -11 -27.5t-28 -11.5h-819q-17 0 -28 11.5 t-11 27.5zM295 1718q0 47 34 81t81 34t81.5 -34t34.5 -81t-34.5 -81.5t-81.5 -34.5t-81 34.5t-34 81.5zM764 1718q0 47 34 81t81 34t81.5 -34t34.5 -81t-34.5 -81.5t-81.5 -34.5t-81 34.5t-34 81.5z" />
<glyph unicode="&#xcc;" horiz-adv-x="610" d="M84.5 1753q-3.5 14 3.5 29l47 90q7 12 26 12.5t27 -6.5l322 -186q10 -5 13.5 -16t-1.5 -23l-28 -58q-12 -26 -50 -10l-344 148q-12 6 -15.5 20zM199 39v1356q0 15 12 27t27 12h135q15 0 27 -12t12 -27v-1356q0 -15 -12 -27t-27 -12h-135q-15 0 -27 12t-12 27z" />
<glyph unicode="&#xcd;" horiz-adv-x="610" d="M85 1676.5q4 10.5 13 15.5l322 186q8 7 27 6.5t26 -12.5l47 -90q8 -15 4.5 -29t-16.5 -20l-344 -148q-37 -17 -49 10l-29 58q-5 13 -1 23.5zM199 39v1356q0 15 12 27t27 12h135q15 0 27 -12t12 -27v-1356q0 -15 -12 -27t-27 -12h-135q-15 0 -27 12t-12 27z" />
<glyph unicode="&#xce;" horiz-adv-x="610" d="M8.5 1657.5q4.5 10.5 14.5 17.5l256 201q9 8 23.5 8t25.5 -8l256 -201q10 -7 14 -17.5t-2 -21.5l-41 -55q-10 -13 -18.5 -15t-28.5 9l-205 133l-205 -133q-19 -10 -28.5 -8.5t-18.5 14.5l-41 55q-6 11 -1.5 21.5zM199 39v1356q0 15 12 27t27 12h135q15 0 27 -12t12 -27 v-1356q0 -15 -12 -27t-27 -12h-135q-15 0 -27 12t-12 27z" />
<glyph unicode="&#xcf;" horiz-adv-x="610" d="M-43 1718q0 47 34 81t81 34t81.5 -34t34.5 -81t-34.5 -81.5t-81.5 -34.5t-81 34.5t-34 81.5zM199 39v1356q0 15 12 27t27 12h135q15 0 27 -12t12 -27v-1356q0 -15 -12 -27t-27 -12h-135q-15 0 -27 12t-12 27zM426 1718q0 47 34 81t81 34t81.5 -34t34.5 -81t-34.5 -81.5 t-81.5 -34.5t-81 34.5t-34 81.5z" />
<glyph unicode="&#xd0;" horiz-adv-x="1529" d="M111 698v21q0 15 10.5 27t25.5 12h60v637q0 15 11 27t26 12h471q145 0 278.5 -57t230 -153t153.5 -228t57 -277q0 -117 -36.5 -227t-103 -198t-155 -154.5t-198 -103t-226.5 -36.5h-471q-15 0 -26 12t-11 27v620h-60q-15 0 -25.5 12t-10.5 27zM416 195h270 q226 0 373 148.5t147 375.5q0 226 -147 373t-373 147h-270v-481h385q17 0 28 -11.5t11 -27.5v-23q0 -15 -11 -26t-28 -11h-385v-464z" />
<glyph unicode="&#xd1;" horiz-adv-x="1587" d="M199 39v1378q0 15 12 26t27 11h51l889 -1028h2v969q0 16 11 27.5t28 11.5h131q15 0 27 -12t12 -27v-1379q0 -15 -12 -25.5t-27 -10.5h-54l-888 1056h-2v-997q0 -16 -11 -27.5t-28 -11.5h-129q-15 0 -27 12t-12 27zM494 1700l16.5 33t26.5 42t40 48.5t51 33t66 15.5 q40 0 75.5 -20.5t56.5 -45t46 -45t46 -20.5q16 0 30 9.5t21 19t18 29t14 24.5q21 35 52 18q5 -4 17 -11t21.5 -14t14.5 -14q11 -17 -6 -55q-10 -22 -23.5 -44t-37 -49t-58 -44t-74.5 -17q-35 0 -69.5 21t-57 45.5t-48 45.5t-44.5 21q-51 0 -88 -84q-8 -19 -17 -24t-30 4 l-47 31q-26 15 -12 47z" />
<glyph unicode="&#xd2;" horiz-adv-x="1660" d="M94 715q0 101 26 197t73 177t114.5 149t148.5 115.5t176.5 74t196.5 26.5q202 0 371.5 -98.5t268 -268.5t98.5 -372t-98.5 -371t-268 -266.5t-371.5 -97.5q-151 0 -287.5 57.5t-234.5 155.5t-155.5 234.5t-57.5 287.5zM299 715q0 -144 71.5 -266.5t193.5 -193.5t265 -71 q108 0 206.5 42t170 113t114 169.5t42.5 206.5q0 143 -71.5 266t-194.5 195.5t-267 72.5q-143 0 -265.5 -72.5t-193.5 -195.5t-71 -266zM611 1753q-4 14 3 29l48 90q7 12 26 12.5t27 -6.5l321 -186q10 -5 14 -16t-1 -23l-29 -58q-11 -26 -49 -10l-344 148q-12 6 -16 20z" />
<glyph unicode="&#xd3;" horiz-adv-x="1660" d="M94 715q0 101 26 197t73 177t114.5 149t148.5 115.5t176.5 74t196.5 26.5q202 0 371.5 -98.5t268 -268.5t98.5 -372t-98.5 -371t-268 -266.5t-371.5 -97.5q-151 0 -287.5 57.5t-234.5 155.5t-155.5 234.5t-57.5 287.5zM299 715q0 -144 71.5 -266.5t193.5 -193.5t265 -71 q108 0 206.5 42t170 113t114 169.5t42.5 206.5q0 143 -71.5 266t-194.5 195.5t-267 72.5q-143 0 -265.5 -72.5t-193.5 -195.5t-71 -266zM613.5 1676.5q4.5 10.5 13.5 15.5l321 186q8 7 27 6.5t26 -12.5l48 -90q8 -15 4 -29t-17 -20l-344 -148q-37 -17 -49 10l-29 58 q-5 13 -0.5 23.5z" />
<glyph unicode="&#xd4;" horiz-adv-x="1660" d="M94 715q0 101 26 197t73 177t114.5 149t148.5 115.5t176.5 74t196.5 26.5q202 0 371.5 -98.5t268 -268.5t98.5 -372t-98.5 -371t-268 -266.5t-371.5 -97.5q-151 0 -287.5 57.5t-234.5 155.5t-155.5 234.5t-57.5 287.5zM299 715q0 -144 71.5 -266.5t193.5 -193.5t265 -71 q108 0 206.5 42t170 113t114 169.5t42.5 206.5q0 143 -71.5 266t-194.5 195.5t-267 72.5q-143 0 -265.5 -72.5t-193.5 -195.5t-71 -266zM533 1657.5q4 10.5 14 17.5l256 201q9 8 23.5 8t25.5 -8l256 -201q10 -7 14 -17.5t-2 -21.5l-41 -55q-10 -13 -18.5 -15t-28.5 9 l-205 133l-204 -133q-31 -17 -48 6l-40 55q-6 11 -2 21.5z" />
<glyph unicode="&#xd5;" horiz-adv-x="1660" d="M94 715q0 101 26 197t73 177t114.5 149t148.5 115.5t176.5 74t196.5 26.5q202 0 371.5 -98.5t268 -268.5t98.5 -372t-98.5 -371t-268 -266.5t-371.5 -97.5q-151 0 -287.5 57.5t-234.5 155.5t-155.5 234.5t-57.5 287.5zM299 715q0 -144 71.5 -266.5t193.5 -193.5t265 -71 q108 0 206.5 42t170 113t114 169.5t42.5 206.5q0 143 -71.5 266t-194.5 195.5t-267 72.5q-143 0 -265.5 -72.5t-193.5 -195.5t-71 -266zM520 1700q13 27 23.5 44.5t37 53t62.5 55t78 19.5q40 0 75.5 -20.5t56 -45t45.5 -45t46 -20.5q16 0 30.5 9.5t21 18.5t18 29t14.5 25 q21 35 51 18q1 -1 24 -15t30 -24q10 -16 -7 -55q-10 -23 -23.5 -44t-37 -48.5t-57.5 -44.5t-74 -17q-35 0 -69.5 21t-57 45.5t-48 45.5t-44.5 21q-51 0 -88 -84q-8 -19 -17 -24t-30 4l-48 31q-26 15 -12 47z" />
<glyph unicode="&#xd6;" horiz-adv-x="1660" d="M94 715q0 101 26 197t73 177t114.5 149t148.5 115.5t176.5 74t196.5 26.5q202 0 371.5 -98.5t268 -268.5t98.5 -372t-98.5 -371t-268 -266.5t-371.5 -97.5q-151 0 -287.5 57.5t-234.5 155.5t-155.5 234.5t-57.5 287.5zM299 715q0 -144 71.5 -266.5t193.5 -193.5t265 -71 q108 0 206.5 42t170 113t114 169.5t42.5 206.5q0 143 -71.5 266t-194.5 195.5t-267 72.5q-143 0 -265.5 -72.5t-193.5 -195.5t-71 -266zM481 1718q0 47 34 81t81 34t82 -34t35 -81t-35 -81.5t-82 -34.5t-81 34.5t-34 81.5zM950 1718q0 47 34 81t81 34t82 -34t35 -81 t-35 -81.5t-82 -34.5t-81 34.5t-34 81.5z" />
<glyph unicode="&#xd7;" horiz-adv-x="964" d="M134 460q0 16 11 27l222 224l-222 221q-11 10 -11 27t11 28l60 62q11 11 28 11t27 -11l221 -222l224 224q11 10 26.5 9.5t26.5 -11.5l61 -62q11 -11 11.5 -26.5t-9.5 -26.5l-223 -223l223 -224q10 -12 9.5 -28t-11.5 -27l-61 -59q-11 -11 -26.5 -11.5t-26.5 9.5l-224 225 l-221 -223q-10 -11 -26 -11t-27 11l-62 61q-11 10 -11 26z" />
<glyph unicode="&#xd8;" horiz-adv-x="1660" d="M94 715q0 101 26 197t73 177t114.5 149t148.5 115.5t176.5 74t196.5 26.5q137 0 263 -48.5t225 -135.5l135 133q10 11 26 11t27 -11l15 -14q10 -11 10 -27t-10 -27l-134 -135q85 -99 133 -224t48 -261q0 -202 -98.5 -371t-268 -266.5t-371.5 -97.5q-282 0 -485 178 l-129 -129q-11 -10 -26.5 -9.5t-26.5 11.5l-15 14q-11 11 -11.5 26.5t9.5 26.5l129 129q-86 98 -133 223.5t-47 264.5zM299 715q0 -193 125 -340l747 749q-151 125 -342 125q-143 0 -265.5 -72.5t-193.5 -195.5t-71 -266zM492 305q146 -121 337 -121q144 0 267 71.5 t194.5 194t71.5 265.5q0 196 -123 338z" />
<glyph unicode="&#xd9;" horiz-adv-x="1476" d="M182 535v860q0 15 12 27t27 12h137q17 0 28 -11.5t11 -27.5v-846q0 -157 93 -261t247 -104q155 0 249.5 102.5t94.5 258.5v850q0 16 11 27.5t28 11.5h137q15 0 27 -12t12 -27v-860q0 -154 -71.5 -281t-200 -200.5t-287.5 -73.5q-158 0 -285.5 73.5t-198.5 200.5t-71 281z M514.5 1753q-3.5 14 3.5 29l47 90q7 12 26 12.5t27 -6.5l322 -186q10 -5 13.5 -16t-1.5 -23l-28 -58q-12 -26 -50 -10l-344 148q-12 6 -15.5 20z" />
<glyph unicode="&#xda;" horiz-adv-x="1476" d="M182 535v860q0 15 12 27t27 12h137q17 0 28 -11.5t11 -27.5v-846q0 -157 93 -261t247 -104q155 0 249.5 102.5t94.5 258.5v850q0 16 11 27.5t28 11.5h137q15 0 27 -12t12 -27v-860q0 -154 -71.5 -281t-200 -200.5t-287.5 -73.5q-158 0 -285.5 73.5t-198.5 200.5t-71 281z M517 1676.5q4 10.5 13 15.5l322 186q8 7 27 6.5t26 -12.5l47 -90q8 -15 4.5 -29t-16.5 -20l-344 -148q-37 -17 -49 10l-29 58q-5 13 -1 23.5z" />
<glyph unicode="&#xdb;" horiz-adv-x="1476" d="M182 535v860q0 15 12 27t27 12h137q17 0 28 -11.5t11 -27.5v-846q0 -157 93 -261t247 -104q155 0 249.5 102.5t94.5 258.5v850q0 16 11 27.5t28 11.5h137q15 0 27 -12t12 -27v-860q0 -154 -71.5 -281t-200 -200.5t-287.5 -73.5q-158 0 -285.5 73.5t-198.5 200.5t-71 281z M444.5 1657.5q4.5 10.5 14.5 17.5l256 201q9 8 24 8t25 -8l256 -201q10 -7 14 -17.5t-2 -21.5l-41 -55q-10 -13 -18.5 -15t-28.5 9l-205 133l-204 -133q-31 -17 -48 6l-41 55q-6 11 -1.5 21.5z" />
<glyph unicode="&#xdc;" horiz-adv-x="1476" d="M182 535v860q0 15 12 27t27 12h137q17 0 28 -11.5t11 -27.5v-846q0 -157 93 -261t247 -104q155 0 249.5 102.5t94.5 258.5v850q0 16 11 27.5t28 11.5h137q15 0 27 -12t12 -27v-860q0 -154 -71.5 -281t-200 -200.5t-287.5 -73.5q-158 0 -285.5 73.5t-198.5 200.5t-71 281z M395 1718q0 47 34 81t81 34t82 -34t35 -81t-35 -81.5t-82 -34.5t-81 34.5t-34 81.5zM864 1718q0 47 34 81t81 34t82 -34t35 -81t-35 -81.5t-82 -34.5t-81 34.5t-34 81.5z" />
<glyph unicode="&#xdd;" horiz-adv-x="1175" d="M-1.5 1414q10.5 20 34.5 20h151q19 0 33 -19l371 -522l370 522q14 19 33 19h154q24 0 34.5 -20t-1.5 -40l-486 -682v-653q0 -15 -12 -27t-27 -12h-135q-17 0 -28 11.5t-11 27.5v651l-479 684q-12 20 -1.5 40zM368 1676.5q4 10.5 13 15.5l321 186q8 7 27.5 6.5t26.5 -12.5 l47 -90q8 -15 4.5 -29t-16.5 -20l-345 -148q-37 -17 -49 10l-28 58q-5 13 -1 23.5z" />
<glyph unicode="&#xde;" horiz-adv-x="1216" d="M199 39v1356q0 16 11 27.5t28 11.5h133q15 0 27 -12t12 -27v-221h295q124 1 229.5 -60t167 -166t61.5 -227q0 -125 -61.5 -231t-166.5 -168t-228 -62h-297v-221q0 -15 -12 -27t-27 -12h-133q-17 0 -28 11.5t-11 27.5zM410 461h282q107 0 183.5 76.5t76.5 187.5 q0 103 -76.5 174.5t-183.5 71.5h-282v-510z" />
<glyph unicode="&#xdf;" horiz-adv-x="1062" d="M133 39v803q0 301 120 456.5t337 155.5q67 0 127 -18.5t109.5 -55.5t78.5 -99t29 -142q0 -64 -27 -132t-59 -114t-59 -94.5t-27 -79.5q0 -17 24 -44.5t58 -61.5t67.5 -75t57.5 -100t24 -123q0 -139 -94.5 -237t-257.5 -98q-47 0 -90 6q-31 3 -31 43v94q0 36 39 33 q4 0 32 -4.5t50 -4.5q69 0 110.5 45.5t41.5 120.5q0 46 -24.5 90t-60 78.5t-71 68t-60 71.5t-24.5 75q0 44 28 105t62 111.5t62 111.5t28 106q0 68 -46.5 109t-111.5 41q-112 0 -178.5 -108.5t-66.5 -331.5v-801q0 -15 -12 -27t-27 -12h-119q-15 0 -27 12t-12 27z" />
<glyph unicode="&#xe0;" horiz-adv-x="864" d="M74 254q0 116 87 190t240 74q38 0 78.5 -6t62.5 -12l21 -6q2 100 -24.5 140t-102.5 40q-96 0 -229 -37q-34 -8 -45 33l-17 75q-8 36 27 48q14 6 45.5 15t100.5 20.5t137 11.5q55 0 98 -10t73 -26t51.5 -43.5t33.5 -55.5t19 -68.5t9 -76.5t2 -85v-436q0 -15 -12 -27 t-27 -12h-57q-23 0 -35 29l-20 55q-109 -104 -252 -104q-117 0 -190.5 74t-73.5 200zM238.5 1280q-3.5 14 3.5 29l47 90q7 12 26 12.5t27 -6.5l322 -186q10 -5 13.5 -16t-1.5 -23l-29 -60q-13 -26 -49 -8l-344 148q-12 6 -15.5 20zM252 256q0 -57 34.5 -94t90.5 -37t109 33 t75 69v131q-15 10 -55 21.5t-88 11.5q-74 0 -120 -36.5t-46 -98.5z" />
<glyph unicode="&#xe1;" horiz-adv-x="864" d="M74 254q0 116 87 190t240 74q38 0 78.5 -6t62.5 -12l21 -6q2 100 -24.5 140t-102.5 40q-96 0 -229 -37q-34 -8 -45 33l-17 75q-8 36 27 48q14 6 45.5 15t100.5 20.5t137 11.5q55 0 98 -10t73 -26t51.5 -43.5t33.5 -55.5t19 -68.5t9 -76.5t2 -85v-436q0 -15 -12 -27 t-27 -12h-57q-23 0 -35 29l-20 55q-109 -104 -252 -104q-117 0 -190.5 74t-73.5 200zM205.5 1203q3.5 11 13.5 16l322 186q8 7 27 6.5t26 -12.5l47 -90q7 -15 3.5 -29t-15.5 -20l-344 -148q-36 -18 -49 8l-29 60q-5 12 -1.5 23zM252 256q0 -57 34.5 -94t90.5 -37t109 33 t75 69v131q-15 10 -55 21.5t-88 11.5q-74 0 -120 -36.5t-46 -98.5z" />
<glyph unicode="&#xe2;" horiz-adv-x="864" d="M74 254q0 116 87 190t240 74q38 0 78.5 -6t62.5 -12l21 -6q2 100 -24.5 140t-102.5 40q-96 0 -229 -37q-34 -8 -45 33l-17 75q-8 36 27 48q14 6 45.5 15t100.5 20.5t137 11.5q55 0 98 -10t73 -26t51.5 -43.5t33.5 -55.5t19 -68.5t9 -76.5t2 -85v-436q0 -15 -12 -27 t-27 -12h-57q-23 0 -35 29l-20 55q-109 -104 -252 -104q-117 0 -190.5 74t-73.5 200zM141.5 1186.5q4.5 10.5 14.5 17.5l256 201q9 7 23.5 7t25.5 -7l256 -201q10 -7 14 -17.5t-2 -21.5l-41 -55q-10 -13 -18.5 -15t-28.5 9l-205 133l-205 -133q-19 -10 -28.5 -8.5 t-18.5 14.5l-41 55q-6 11 -1.5 21.5zM252 256q0 -57 34.5 -94t90.5 -37t109 33t75 69v131q-15 10 -55 21.5t-88 11.5q-74 0 -120 -36.5t-46 -98.5z" />
<glyph unicode="&#xe3;" horiz-adv-x="864" d="M74 254q0 116 87 190t240 74q38 0 78.5 -6t62.5 -12l21 -6q2 100 -24.5 140t-102.5 40q-96 0 -229 -37q-34 -8 -45 33l-17 75q-8 36 27 48q14 6 45.5 15t100.5 20.5t137 11.5q55 0 98 -10t73 -26t51.5 -43.5t33.5 -55.5t19 -68.5t9 -76.5t2 -85v-436q0 -15 -12 -27 t-27 -12h-57q-23 0 -35 29l-20 55q-109 -104 -252 -104q-117 0 -190.5 74t-73.5 200zM127 1241q13 27 23.5 44.5t37 53t62.5 55t78 19.5q40 0 75.5 -20.5t56 -45t45.5 -45t46 -20.5q16 0 30.5 9.5t21 18.5t18 29t14.5 25q21 35 51 18q5 -4 17 -11t21.5 -14t14.5 -14 q11 -17 -6 -55q-10 -22 -23.5 -43.5t-37 -49t-57.5 -44t-74 -16.5q-35 0 -69.5 21t-57 45.5t-48 45.5t-44.5 21q-52 0 -89 -84q-8 -19 -17 -24t-30 3l-47 31q-26 15 -12 47zM252 256q0 -57 34.5 -94t90.5 -37t109 33t75 69v131q-15 10 -55 21.5t-88 11.5q-74 0 -120 -36.5 t-46 -98.5z" />
<glyph unicode="&#xe4;" horiz-adv-x="864" d="M74 254q0 116 87 190t240 74q38 0 78.5 -6t62.5 -12l21 -6q2 100 -24.5 140t-102.5 40q-96 0 -229 -37q-34 -8 -45 33l-17 75q-8 36 27 48q14 6 45.5 15t100.5 20.5t137 11.5q55 0 98 -10t73 -26t51.5 -43.5t33.5 -55.5t19 -68.5t9 -76.5t2 -85v-436q0 -15 -12 -27 t-27 -12h-57q-23 0 -35 29l-20 55q-109 -104 -252 -104q-117 0 -190.5 74t-73.5 200zM131 1276q0 49 33.5 83t81.5 34q49 0 82.5 -33.5t33.5 -83.5q0 -48 -33.5 -81.5t-82.5 -33.5q-47 0 -81 34t-34 81zM252 256q0 -57 34.5 -94t90.5 -37t109 33t75 69v131q-15 10 -55 21.5 t-88 11.5q-74 0 -120 -36.5t-46 -98.5zM535 1276q0 49 33.5 83t80.5 34q49 0 83 -33.5t34 -83.5q0 -48 -34 -81.5t-83 -33.5q-47 0 -80.5 34t-33.5 81z" />
<glyph unicode="&#xe5;" horiz-adv-x="864" d="M74 254q0 116 87 190t240 74q38 0 78.5 -6t62.5 -12l21 -6q2 100 -24.5 140t-102.5 40q-96 0 -229 -37q-34 -8 -45 33l-17 75q-8 36 27 48q14 6 45.5 15t100.5 20.5t137 11.5q55 0 98 -10t73 -26t51.5 -43.5t33.5 -55.5t19 -68.5t9 -76.5t2 -85v-436q0 -15 -12 -27 t-27 -12h-57q-23 0 -35 29l-20 55q-109 -104 -252 -104q-117 0 -190.5 74t-73.5 200zM217 1227q0 95 66 161t161 66q94 0 161 -66t67 -161t-67 -161.5t-161 -66.5q-95 0 -161 66.5t-66 161.5zM252 256q0 -57 34.5 -94t90.5 -37t109 33t75 69v131q-15 10 -55 21.5t-88 11.5 q-74 0 -120 -36.5t-46 -98.5zM330 1227q0 -46 32.5 -80.5t81.5 -34.5q44 0 76.5 35t32.5 80q0 44 -32.5 76t-76.5 32q-50 0 -82 -31.5t-32 -76.5z" />
<glyph unicode="&#xe6;" horiz-adv-x="1386" d="M74 256q0 116 83.5 189t227.5 73q43 0 86 -3t65 -6l21 -3q-2 102 -24 140t-91 38q-94 0 -241 -41q-15 -3 -28.5 6.5t-16.5 24.5l-15 82q-3 30 33 41q142 43 283 43q180 0 239 -97q112 97 250 97q158 0 267.5 -106.5t109.5 -272.5q0 -19 -1 -31.5t-5 -27.5t-13 -23t-24 -8 h-563q5 -89 72 -155t169 -66q95 0 183 55q15 8 23 11.5t16.5 2t15.5 -11.5q10 -12 29.5 -36t29.5 -36q23 -31 -6 -53q-50 -43 -129 -72.5t-174 -29.5q-192 0 -301 139q-41 -53 -120 -96t-175 -43q-124 0 -200 75.5t-76 200.5zM252 258q0 -61 40.5 -95t98.5 -34 q40 0 78.5 19.5t57.5 38t32 36.5v148q-57 20 -149 20q-66 0 -112 -36t-46 -97zM727 502h406q-3 76 -58.5 128t-132.5 52q-82 0 -144 -52t-71 -128z" />
<glyph unicode="&#xe7;" horiz-adv-x="888" d="M72 408q0 118 60 218t159 157t211 57q179 0 297 -146q10 -14 8 -30t-16 -27l-68 -62q-5 -5 -9.5 -8t-9.5 -3h-8t-8 3.5t-6.5 4.5t-7 6t-6.5 6q-70 78 -164 78q-99 0 -168.5 -73.5t-69.5 -178.5q0 -106 68.5 -180t167.5 -74q22 0 40.5 2.5t36 10t27.5 11t26.5 17 t20.5 16.5t21 20l18 17q27 27 56 4l55 -45q35 -28 14 -57q-51 -80 -132 -125.5t-183 -46.5v-89q95 -12 151 -67.5t56 -142.5q0 -89 -62 -151t-153 -62q-45 0 -87 19.5t-69 51.5q-12 14 -11 29t13 26l35 29q10 8 24 7.5t21 -9.5q27 -31 74 -31q35 0 57 25t22 61 q0 97 -159 115q-35 7 -35 39v168q-134 38 -220.5 150t-86.5 260z" />
<glyph unicode="&#xe8;" horiz-adv-x="923" d="M74 410q0 178 114.5 304t294.5 126q161 0 269 -108t108 -271q0 -27 -4 -55q-1 -15 -12 -25t-25 -10h-557q5 -87 72 -153t164 -66q92 0 182 59q16 9 23 12t15.5 1.5t16.5 -11.5l58 -78q25 -29 -5 -53q-50 -43 -129 -72.5t-174 -29.5q-182 0 -296.5 124.5t-114.5 305.5z M260.5 1280q-3.5 14 3.5 29l47 90q7 12 26.5 12.5t27.5 -6.5l321 -186q10 -5 13.5 -16t-1.5 -23l-28 -60q-13 -26 -49 -8l-345 148q-12 6 -15.5 20zM272 500h398q-5 74 -60 128t-129 54q-82 0 -141 -52t-68 -130z" />
<glyph unicode="&#xe9;" horiz-adv-x="923" d="M74 410q0 178 114.5 304t294.5 126q161 0 269 -108t108 -271q0 -27 -4 -55q-1 -15 -12 -25t-25 -10h-557q5 -87 72 -153t164 -66q92 0 182 59q16 9 23 12t15.5 1.5t16.5 -11.5l58 -78q25 -29 -5 -53q-50 -43 -129 -72.5t-174 -29.5q-182 0 -296.5 124.5t-114.5 305.5z M258.5 1203q3.5 11 13.5 16l322 186q8 7 27 6.5t26 -12.5l47 -90q7 -15 3.5 -29t-15.5 -20l-344 -148q-36 -18 -49 8l-29 60q-5 12 -1.5 23zM272 500h398q-5 74 -60 128t-129 54q-82 0 -141 -52t-68 -130z" />
<glyph unicode="&#xea;" horiz-adv-x="923" d="M74 410q0 178 114.5 304t294.5 126q161 0 269 -108t108 -271q0 -27 -4 -55q-1 -15 -12 -25t-25 -10h-557q5 -87 72 -153t164 -66q92 0 182 59q16 9 23 12t15.5 1.5t16.5 -11.5l58 -78q25 -29 -5 -53q-50 -43 -129 -72.5t-174 -29.5q-182 0 -296.5 124.5t-114.5 305.5z M188.5 1186.5q4.5 10.5 14.5 17.5l256 201q9 7 24 7t25 -7l256 -201q10 -7 14 -17.5t-2 -21.5l-41 -55q-10 -13 -18.5 -15t-28.5 9l-205 133l-204 -133q-31 -17 -48 6l-41 55q-6 11 -1.5 21.5zM272 500h398q-5 74 -60 128t-129 54q-82 0 -141 -52t-68 -130z" />
<glyph unicode="&#xeb;" horiz-adv-x="923" d="M74 410q0 178 114.5 304t294.5 126q161 0 269 -108t108 -271q0 -27 -4 -55q-1 -15 -12 -25t-25 -10h-557q5 -87 72 -153t164 -66q92 0 182 59q16 9 23 12t15.5 1.5t16.5 -11.5l58 -78q25 -29 -5 -53q-50 -43 -129 -72.5t-174 -29.5q-182 0 -296.5 124.5t-114.5 305.5z M160 1276q0 49 33.5 83t80.5 34q50 0 83.5 -33.5t33.5 -83.5q0 -48 -34 -81.5t-83 -33.5q-47 0 -80.5 34t-33.5 81zM272 500h398q-5 74 -60 128t-129 54q-82 0 -141 -52t-68 -130zM563 1276q0 49 33.5 83t81.5 34q50 0 83.5 -33.5t33.5 -83.5q0 -48 -34 -81.5t-83 -33.5 q-47 0 -81 34t-34 81z" />
<glyph unicode="&#xec;" horiz-adv-x="460" d="M7 1280q-4 14 3 29l47 90q7 12 26.5 12.5t27.5 -6.5l321 -186q10 -5 13.5 -16t-1.5 -23l-28 -60q-13 -26 -49 -8l-344 148q-12 6 -16 20zM133 39v741q0 15 12 27t27 12h117q15 0 27 -12t12 -27v-741q0 -15 -12 -27t-27 -12h-117q-15 0 -27 12t-12 27z" />
<glyph unicode="&#xed;" horiz-adv-x="460" d="M6.5 1203q3.5 11 13.5 16l322 186q8 7 27 6.5t26 -12.5l47 -90q7 -15 3.5 -29t-15.5 -20l-344 -148q-36 -18 -49 8l-29 60q-5 12 -1.5 23zM133 39v741q0 15 12 27t27 12h117q15 0 27 -12t12 -27v-741q0 -15 -12 -27t-27 -12h-117q-15 0 -27 12t-12 27z" />
<glyph unicode="&#xee;" horiz-adv-x="460" d="M-65 1186.5q4 10.5 14 17.5l256 201q9 7 24 7t25 -7l256 -201q10 -7 14 -17.5t-2 -21.5l-41 -55q-10 -13 -18.5 -15t-28.5 9l-205 133l-204 -133q-31 -17 -48 6l-40 55q-6 11 -2 21.5zM133 39v741q0 15 12 27t27 12h117q15 0 27 -12t12 -27v-741q0 -15 -12 -27t-27 -12 h-117q-15 0 -27 12t-12 27z" />
<glyph unicode="&#xef;" horiz-adv-x="460" d="M-88 1276q0 49 33.5 83t81.5 34q49 0 82.5 -33.5t33.5 -83.5q0 -48 -33.5 -81.5t-82.5 -33.5q-47 0 -81 34t-34 81zM133 39v741q0 15 12 27t27 12h117q15 0 27 -12t12 -27v-741q0 -15 -12 -27t-27 -12h-117q-15 0 -27 12t-12 27zM315 1276q0 49 33.5 83t81.5 34 q50 0 83.5 -33.5t33.5 -83.5q0 -48 -34 -81.5t-83 -33.5q-47 0 -81 34t-34 81z" />
<glyph unicode="&#xf0;" horiz-adv-x="1095" d="M70 449q0 103 36.5 188.5t96.5 140.5t137 85t160 30q135 0 272 -76q-46 165 -240 311l-182 -104q-14 -7 -28.5 -3.5t-22.5 15.5l-10 21q-8 12 -4.5 28t16.5 23l141 82q-99 58 -170 84q-42 16 -26 55l37 88q13 33 49 21q144 -54 282 -148l142 82q15 7 30 2.5t23 -18.5 l12 -19q8 -12 3.5 -28t-17.5 -23l-109 -63q139 -118 225.5 -284.5t86.5 -385.5q0 -120 -30 -222.5t-88 -181.5t-151.5 -124t-212.5 -45q-123 0 -228.5 63t-167.5 171t-62 235zM258 446q0 -116 79 -199t191 -83q64 0 116.5 25.5t85 67.5t53.5 95.5t27.5 108.5t0.5 108 q-4 16 -25.5 40.5t-56.5 51t-88.5 45.5t-110.5 19q-114 0 -193 -81.5t-79 -197.5z" />
<glyph unicode="&#xf1;" horiz-adv-x="1038" d="M133 39v741q0 15 12 27t27 12h59q26 0 33 -24l25 -70q9 10 29 25.5t56.5 37.5t90 37t110.5 15q91 0 158.5 -30.5t107 -85t58.5 -122.5t19 -151v-412q0 -15 -12 -27t-27 -12h-117q-17 0 -28 11.5t-11 27.5v420q0 97 -45 150t-125 53q-85 0 -150.5 -45t-76.5 -78v-500 q0 -21 -10.5 -30t-36.5 -9h-107q-15 0 -27 12t-12 27zM225 1241q13 27 23.5 44.5t37 53t62.5 55t78 19.5q40 0 75.5 -20.5t56 -45t45.5 -45t46 -20.5q16 0 30.5 9.5t21 18.5t18 29t14.5 25q21 35 51 18q2 -1 24.5 -15t29.5 -24q10 -16 -7 -55q-10 -22 -23.5 -43.5t-37 -49 t-57.5 -44t-74 -16.5q-35 0 -69.5 21t-57 45.5t-48 45.5t-44.5 21q-51 0 -88 -84q-8 -19 -17 -24t-30 3l-47 31q-26 16 -13 47z" />
<glyph unicode="&#xf2;" horiz-adv-x="970" d="M72 412q0 174 121 301t292 127t292.5 -127t121.5 -301q0 -178 -121.5 -305t-292.5 -127t-292 127t-121 305zM254 412q0 -106 67.5 -181t163.5 -75q97 0 164.5 75t67.5 181q0 103 -68 176.5t-164 73.5t-163.5 -73.5t-67.5 -176.5zM267 1280q-4 14 3 29l47 90 q7 12 26.5 12.5t27.5 -6.5l321 -186q10 -5 14 -16t-1 -23l-29 -60q-13 -26 -49 -8l-344 148q-12 6 -16 20z" />
<glyph unicode="&#xf3;" horiz-adv-x="970" d="M72 412q0 174 121 301t292 127t292.5 -127t121.5 -301q0 -178 -121.5 -305t-292.5 -127t-292 127t-121 305zM254 412q0 -106 67.5 -181t163.5 -75q97 0 164.5 75t67.5 181q0 103 -68 176.5t-164 73.5t-163.5 -73.5t-67.5 -176.5zM265 1203q4 11 14 16l321 186q8 7 27 6.5 t26 -12.5l47 -90q7 -15 3.5 -29t-15.5 -20l-344 -148q-36 -18 -49 8l-29 60q-5 12 -1 23z" />
<glyph unicode="&#xf4;" horiz-adv-x="970" d="M72 412q0 174 121 301t292 127t292.5 -127t121.5 -301q0 -178 -121.5 -305t-292.5 -127t-292 127t-121 305zM188.5 1186.5q4.5 10.5 14.5 17.5l256 201q9 7 24 7t25 -7l256 -201q10 -7 14 -17.5t-2 -21.5l-41 -55q-10 -13 -18.5 -15t-28.5 9l-205 133l-204 -133 q-31 -17 -48 6l-41 55q-6 11 -1.5 21.5zM254 412q0 -106 67.5 -181t163.5 -75q97 0 164.5 75t67.5 181q0 103 -68 176.5t-164 73.5t-163.5 -73.5t-67.5 -176.5z" />
<glyph unicode="&#xf5;" horiz-adv-x="970" d="M72 412q0 174 121 301t292 127t292.5 -127t121.5 -301q0 -178 -121.5 -305t-292.5 -127t-292 127t-121 305zM176 1241q13 27 23.5 44.5t37 53t62.5 55t78 19.5q40 0 75.5 -20.5t56 -45t45.5 -45t46 -20.5q16 0 30.5 9.5t21 18.5t18 29t14.5 25q21 35 51 18q5 -4 17 -11 t21.5 -14t14.5 -14q11 -17 -6 -55q-10 -22 -23.5 -43.5t-37 -49t-57.5 -44t-74 -16.5q-35 0 -69.5 21t-57 45.5t-48 45.5t-44.5 21q-51 0 -88 -84q-8 -19 -17 -24t-30 3l-48 31q-26 15 -12 47zM254 412q0 -106 67.5 -181t163.5 -75q97 0 164.5 75t67.5 181q0 103 -68 176.5 t-164 73.5t-163.5 -73.5t-67.5 -176.5z" />
<glyph unicode="&#xf6;" horiz-adv-x="970" d="M72 412q0 174 121 301t292 127t292.5 -127t121.5 -301q0 -178 -121.5 -305t-292.5 -127t-292 127t-121 305zM166 1276q0 49 33.5 83t81.5 34q49 0 82.5 -33.5t33.5 -83.5q0 -48 -33.5 -81.5t-82.5 -33.5q-47 0 -81 34t-34 81zM254 412q0 -106 67.5 -181t163.5 -75 q97 0 164.5 75t67.5 181q0 103 -68 176.5t-164 73.5t-163.5 -73.5t-67.5 -176.5zM569 1276q0 49 33.5 83t81.5 34q50 0 83.5 -33.5t33.5 -83.5q0 -48 -34 -81.5t-83 -33.5q-47 0 -81 34t-34 81z" />
<glyph unicode="&#xf7;" horiz-adv-x="1060" d="M96 666v86q0 15 12 27t27 12h793q15 0 26 -12t11 -27v-86q0 -15 -11 -27t-26 -12h-793q-15 0 -27 12t-12 27zM395 338q0 54 37.5 91.5t91.5 37.5t91.5 -37.5t37.5 -91.5q0 -53 -37.5 -91t-91.5 -38t-91.5 38t-37.5 91zM395 1094q0 54 38 91.5t91 37.5q54 0 91.5 -37.5 t37.5 -91.5q0 -53 -37.5 -91t-91.5 -38q-52 0 -90.5 38.5t-38.5 90.5z" />
<glyph unicode="&#xf8;" horiz-adv-x="968" d="M74 414q0 174 120 300t291 126q143 0 260 -99l50 47q11 12 27 12t26 -12l16 -14q12 -11 12 -26.5t-12 -26.5l-51 -51q84 -114 84 -256q0 -178 -120.5 -306t-291.5 -128q-148 0 -260 94l-37 -37q-11 -10 -27 -9.5t-28 11.5l-12 14q-12 10 -12.5 26.5t10.5 26.5l39 39 q-84 117 -84 269zM256 414q0 -78 31 -135l331 335q-57 48 -133 48q-96 0 -162.5 -72.5t-66.5 -175.5zM352 201q57 -45 133 -45q96 0 163 76t67 182q0 68 -31 125z" />
<glyph unicode="&#xf9;" horiz-adv-x="1011" d="M123 367v413q0 15 12 27t27 12h117q15 0 26.5 -12t11.5 -27v-420q0 -99 44.5 -151.5t123.5 -52.5q80 0 138.5 48.5t64.5 86.5v489q0 23 10.5 31t34.5 8h107q15 0 27 -12t12 -27v-741q0 -15 -12 -27t-27 -12h-58q-26 0 -37 33l-20 59l-10 -9q-10 -9 -17 -15.5t-22.5 -18 t-30 -20t-36.5 -18.5t-44.5 -16t-51 -10.5t-58.5 -4.5q-89 0 -155 30t-103.5 84t-55.5 122t-18 151zM287.5 1280q-3.5 14 3.5 29l47 90q7 12 26 12.5t27 -6.5l322 -186q10 -5 13.5 -16t-1.5 -23l-29 -60q-13 -26 -49 -8l-344 148q-12 6 -15.5 20z" />
<glyph unicode="&#xfa;" horiz-adv-x="1011" d="M123 367v413q0 15 12 27t27 12h117q15 0 26.5 -12t11.5 -27v-420q0 -99 44.5 -151.5t123.5 -52.5q80 0 138.5 48.5t64.5 86.5v489q0 23 10.5 31t34.5 8h107q15 0 27 -12t12 -27v-741q0 -15 -12 -27t-27 -12h-58q-26 0 -37 33l-20 59l-10 -9q-10 -9 -17 -15.5t-22.5 -18 t-30 -20t-36.5 -18.5t-44.5 -16t-51 -10.5t-58.5 -4.5q-89 0 -155 30t-103.5 84t-55.5 122t-18 151zM291.5 1203q3.5 11 13.5 16l322 186q8 7 27 6.5t26 -12.5l47 -90q7 -15 3.5 -29t-15.5 -20l-344 -148q-36 -18 -49 8l-29 60q-5 12 -1.5 23z" />
<glyph unicode="&#xfb;" horiz-adv-x="1011" d="M123 367v413q0 15 12 27t27 12h117q15 0 26.5 -12t11.5 -27v-420q0 -99 44.5 -151.5t123.5 -52.5q80 0 138.5 48.5t64.5 86.5v489q0 23 10.5 31t34.5 8h107q15 0 27 -12t12 -27v-741q0 -15 -12 -27t-27 -12h-58q-26 0 -37 33l-20 59l-10 -9q-10 -9 -17 -15.5t-22.5 -18 t-30 -20t-36.5 -18.5t-44.5 -16t-51 -10.5t-58.5 -4.5q-89 0 -155 30t-103.5 84t-55.5 122t-18 151zM215 1186.5q4 10.5 14 17.5l256 201q9 7 24 7t26 -7l256 -201q10 -7 14 -17.5t-2 -21.5l-41 -55q-10 -13 -18.5 -15t-28.5 9l-205 133l-205 -133q-19 -10 -28.5 -8.5 t-18.5 14.5l-41 55q-6 11 -2 21.5z" />
<glyph unicode="&#xfc;" horiz-adv-x="1011" d="M123 367v413q0 15 12 27t27 12h117q15 0 26.5 -12t11.5 -27v-420q0 -99 44.5 -151.5t123.5 -52.5q80 0 138.5 48.5t64.5 86.5v489q0 23 10.5 31t34.5 8h107q15 0 27 -12t12 -27v-741q0 -15 -12 -27t-27 -12h-58q-26 0 -37 33l-20 59l-10 -9q-10 -9 -17 -15.5t-22.5 -18 t-30 -20t-36.5 -18.5t-44.5 -16t-51 -10.5t-58.5 -4.5q-89 0 -155 30t-103.5 84t-55.5 122t-18 151zM197 1276q0 49 33.5 83t80.5 34q49 0 83 -33.5t34 -83.5q0 -48 -34 -81.5t-83 -33.5q-47 0 -80.5 34t-33.5 81zM600 1276q0 49 33.5 83t81.5 34q49 0 82.5 -33.5 t33.5 -83.5q0 -48 -33.5 -81.5t-82.5 -33.5q-47 0 -81 34t-34 81z" />
<glyph unicode="&#xfd;" horiz-adv-x="948" d="M23 766q-9 21 1 37t33 16h136q23 0 34 -22l254 -545h2l246 545q10 22 43 22h117q25 0 35.5 -16.5t-0.5 -36.5l-627 -1356q-12 -24 -35 -24h-123q-23 0 -34 16.5t-1 38.5l275 588zM262.5 1203q3.5 11 13.5 16l322 186q8 7 27 6.5t26 -12.5l47 -90q7 -15 3.5 -29t-15.5 -20 l-344 -148q-36 -18 -49 8l-29 60q-5 12 -1.5 23z" />
<glyph unicode="&#xfe;" horiz-adv-x="1005" d="M135 -578v1973q0 15 12 27t27 12h119q15 0 27 -12t12 -27v-625q1 1 10 7t17.5 11.5t23 13.5t31 14t36 12t43 9t48.5 3q167 0 279 -126.5t112 -305.5q0 -181 -117 -304.5t-287 -123.5q-18 0 -37 2t-34.5 5.5t-31.5 8t-27.5 9t-23.5 10t-18.5 8.5t-14.5 7.5t-9 4.5v-613 q0 -15 -12 -26.5t-27 -11.5h-119q-15 0 -27 11.5t-12 26.5zM332 219q11 -16 62.5 -37.5t113.5 -21.5q102 0 167.5 71.5t65.5 178.5q0 105 -62 179.5t-163 74.5q-68 0 -120 -36.5t-64 -64.5v-344z" />
<glyph unicode="&#xff;" horiz-adv-x="948" d="M23 766q-9 21 1 37t33 16h136q23 0 34 -22l254 -545h2l246 545q10 22 43 22h117q25 0 35.5 -16.5t-0.5 -36.5l-627 -1356q-12 -24 -35 -24h-123q-23 0 -34 16.5t-1 38.5l275 588zM166 1276q0 49 33.5 83t81.5 34q49 0 82.5 -33.5t33.5 -83.5q0 -48 -33.5 -81.5 t-82.5 -33.5q-47 0 -81 34t-34 81zM569 1276q0 49 33.5 83t81.5 34q50 0 83.5 -33.5t33.5 -83.5q0 -48 -34 -81.5t-83 -33.5q-47 0 -81 34t-34 81z" />
<glyph unicode="&#x152;" horiz-adv-x="1986" d="M94 715q0 101 26 197t73 177t114.5 149t148.5 115.5t176.5 74t196.5 26.5q45 0 92.5 -5t72.5 -10l24 -5h819q17 0 28 -11.5t11 -27.5v-115q0 -16 -11 -27.5t-28 -11.5h-647v-418h547q15 0 27 -12t12 -27v-114q0 -17 -11.5 -28t-27.5 -11h-547v-441h647q17 0 28 -11.5 t11 -26.5v-113q0 -16 -11 -27.5t-28 -11.5h-819q-101 -20 -189 -20q-151 0 -287.5 57.5t-234.5 155.5t-155.5 234.5t-57.5 287.5zM299 715q0 -144 71.5 -267t193.5 -194.5t265 -71.5q86 0 150 21v1024q-77 22 -150 22q-143 0 -265.5 -72.5t-193.5 -195.5t-71 -266z" />
<glyph unicode="&#x153;" horiz-adv-x="1548" d="M72 414q0 174 121 300t292 126q91 0 172 -41.5t138 -112.5q118 154 313 154q157 0 267 -106.5t110 -272.5q0 -27 -4 -55q-1 -15 -13 -25t-26 -10h-553q11 -88 76 -154.5t155 -66.5q95 0 183 55q15 8 23 11.5t16.5 2t15.5 -11.5q10 -12 29.5 -36t29.5 -36q23 -31 -6 -53 q-48 -43 -127.5 -72.5t-175.5 -29.5q-192 0 -313 151q-57 -71 -137.5 -111t-172.5 -40q-171 0 -292 128t-121 306zM254 414q0 -107 67 -182.5t164 -75.5q96 0 163 76t67 182q0 103 -67 175.5t-163 72.5q-98 0 -164.5 -72.5t-66.5 -175.5zM899 500h395q-3 76 -58 127t-132 51 q-81 0 -138.5 -50.5t-66.5 -127.5z" />
<glyph unicode="&#x178;" horiz-adv-x="1175" d="M-1.5 1414q10.5 20 34.5 20h151q19 0 33 -19l371 -522l370 522q14 19 33 19h154q24 0 34.5 -20t-1.5 -40l-486 -682v-653q0 -15 -12 -27t-27 -12h-135q-17 0 -28 11.5t-11 27.5v651l-479 684q-12 20 -1.5 40zM236 1718q0 47 33.5 81t80.5 34t82 -34t35 -81t-35 -81.5 t-82 -34.5t-80.5 34.5t-33.5 81.5zM705 1718q0 47 33.5 81t80.5 34t82 -34t35 -81t-35 -81.5t-82 -34.5t-80.5 34.5t-33.5 81.5z" />
<glyph unicode="&#x2c6;" horiz-adv-x="763" d="M82 1186.5q4 10.5 14 17.5l256 201q9 7 24 7t25 -7l256 -201q10 -7 14.5 -17.5t-1.5 -21.5l-41 -55q-10 -13 -18.5 -15t-28.5 9l-205 133l-205 -133q-19 -10 -28.5 -8.5t-18.5 14.5l-41 55q-6 11 -2 21.5z" />
<glyph unicode="&#x2dc;" horiz-adv-x="778" d="M78 1241q13 27 23.5 44.5t37 53t62.5 55t78 19.5q40 0 75.5 -20.5t56 -45t45.5 -45t46 -20.5q16 0 30.5 9.5t21 18.5t18 29t14.5 25q21 35 51 18q5 -4 17 -11t21.5 -14t14.5 -14q11 -17 -6 -55q-10 -22 -23.5 -43.5t-37 -49t-57.5 -44t-74 -16.5q-35 0 -69.5 21 t-57.5 45.5t-48.5 45.5t-44.5 21q-51 0 -88 -84q-8 -19 -17 -24t-30 3l-47 31q-26 15 -12 47z" />
<glyph unicode="&#x2000;" horiz-adv-x="1001" />
<glyph unicode="&#x2001;" horiz-adv-x="2003" />
<glyph unicode="&#x2002;" horiz-adv-x="1001" />
<glyph unicode="&#x2003;" horiz-adv-x="2003" />
<glyph unicode="&#x2004;" horiz-adv-x="667" />
<glyph unicode="&#x2005;" horiz-adv-x="500" />
<glyph unicode="&#x2006;" horiz-adv-x="333" />
<glyph unicode="&#x2007;" horiz-adv-x="333" />
<glyph unicode="&#x2008;" horiz-adv-x="250" />
<glyph unicode="&#x2009;" horiz-adv-x="400" />
<glyph unicode="&#x200a;" horiz-adv-x="111" />
<glyph unicode="&#x2010;" horiz-adv-x="798" d="M139 459v88q0 17 11 28t28 11h443q17 0 27.5 -11t10.5 -28v-88q0 -15 -10.5 -26t-27.5 -11h-443q-17 0 -28 11t-11 26z" />
<glyph unicode="&#x2011;" horiz-adv-x="798" d="M139 459v88q0 17 11 28t28 11h443q17 0 27.5 -11t10.5 -28v-88q0 -15 -10.5 -26t-27.5 -11h-443q-17 0 -28 11t-11 26z" />
<glyph unicode="&#x2012;" horiz-adv-x="798" d="M139 459v88q0 17 11 28t28 11h443q17 0 27.5 -11t10.5 -28v-88q0 -15 -10.5 -26t-27.5 -11h-443q-17 0 -28 11t-11 26z" />
<glyph unicode="&#x2013;" horiz-adv-x="1130" d="M135 602v49q0 17 11 28t28 11h782q17 0 28 -11t11 -28v-49q0 -15 -11 -26t-28 -11h-782q-17 0 -28 11t-11 26z" />
<glyph unicode="&#x2014;" horiz-adv-x="1581" d="M135 602v49q0 17 11 28t28 11h1233q17 0 28 -11t11 -28v-49q0 -15 -11 -26t-28 -11h-1233q-17 0 -28 11t-11 26z" />
<glyph unicode="&#x2018;" horiz-adv-x="411" d="M63 1063q0 65 19 127.5t49.5 110.5t57 80.5t53.5 56.5q28 25 47 2l30 -31q18 -22 -10 -47q-131 -118 -133 -254q18 6 45 6q51 0 89 -37.5t38 -89.5q0 -53 -39 -90t-94 -37q-62 0 -107 47.5t-45 155.5z" />
<glyph unicode="&#x2019;" horiz-adv-x="405" d="M66 1327q0 54 37.5 90.5t93.5 36.5q63 0 108 -46.5t45 -154.5q0 -65 -18.5 -128t-49 -110.5t-57 -79.5t-53.5 -56t-49 -2l-29 28q-20 21 8 49q16 13 31 27.5t42.5 48.5t44 80.5t16.5 97.5q-12 -6 -43 -6q-53 0 -90 36.5t-37 88.5z" />
<glyph unicode="&#x201a;" horiz-adv-x="471" d="M94 106q0 53 39 90t94 37q63 0 107.5 -47t44.5 -155q0 -65 -18.5 -127t-49 -110.5t-57 -80t-53.5 -57.5q-28 -22 -47 0l-31 29q-8 9 -5.5 23t15.5 24q14 11 30 27.5t42 49.5t43 80t18 97q-1 0 -16 -3t-29 -3q-51 0 -89 37t-38 89z" />
<glyph unicode="&#x201c;" horiz-adv-x="792" d="M63 1067q0 65 19 127t49.5 110.5t56.5 80t54 57.5q28 22 47 0l30 -29q8 -9 5.5 -23t-15.5 -24q-131 -118 -133 -254q1 0 16 3t29 3q51 0 89 -37.5t38 -89.5q0 -53 -39 -90t-94 -37q-62 0 -107 47.5t-45 155.5zM444 1067q0 65 19 127t49.5 110.5t56.5 80t54 57.5 q28 21 49 0l28 -29q9 -9 6.5 -22.5t-14.5 -24.5q-15 -12 -31.5 -28.5t-42.5 -49.5t-42.5 -79.5t-16.5 -96.5l15 3q16 3 28 3q52 0 89.5 -37t37.5 -90t-38 -90t-93 -37q-63 0 -108.5 47.5t-45.5 155.5z" />
<glyph unicode="&#x201d;" horiz-adv-x="786" d="M66 1327q0 54 37.5 90.5t93.5 36.5q63 0 108 -46.5t45 -154.5q0 -65 -18.5 -128t-49 -110.5t-57 -79.5t-53.5 -56t-49 -2l-29 28q-20 21 8 49q16 13 31 27.5t42.5 48.5t44 80.5t16.5 97.5q-12 -6 -43 -6q-53 0 -90 36.5t-37 88.5zM446 1327q0 54 39 90.5t95 36.5 q63 0 107 -46.5t44 -154.5q0 -65 -18.5 -128t-49 -110.5t-57 -79.5t-53.5 -56q-28 -25 -47 -2l-31 28q-8 9 -5.5 23t15.5 26q15 12 30 27.5t42 48.5t43.5 80t17.5 98q-18 -6 -45 -6q-52 0 -89.5 36.5t-37.5 88.5z" />
<glyph unicode="&#x201e;" horiz-adv-x="851" d="M94 106q0 53 38 90t93 37q63 0 108.5 -47t45.5 -155q0 -65 -18.5 -127t-49 -110.5t-57 -80t-53.5 -57.5q-28 -21 -49 0l-29 29q-9 9 -6.5 22.5t14.5 24.5q11 9 22 19t33 35.5t37.5 52t28 66.5t12.5 81l-16 -3q-15 -3 -27 -3q-53 0 -90 37t-37 89zM475 106q0 53 39 90 t94 37q63 0 107.5 -47t44.5 -155q0 -65 -18.5 -127t-49 -110.5t-57 -80t-53.5 -57.5q-28 -22 -47 0l-31 29q-8 9 -5.5 23t15.5 24q14 11 30 27.5t42 49.5t43 80t18 97q-1 0 -16 -3t-29 -3q-51 0 -89 37t-38 89z" />
<glyph unicode="&#x2022;" horiz-adv-x="759" d="M135 582q0 101 71.5 174t168.5 73q103 0 175.5 -72.5t72.5 -174.5q0 -99 -73 -169.5t-175 -70.5q-97 0 -168.5 71t-71.5 169z" />
<glyph unicode="&#x2026;" horiz-adv-x="1323" d="M109 111q0 55 38.5 94t92.5 39q56 0 94.5 -39t38.5 -94q0 -54 -39 -92.5t-94 -38.5q-54 0 -92.5 38.5t-38.5 92.5zM528 111q0 55 38.5 94t92.5 39q56 0 95 -39t39 -94q0 -54 -39.5 -92.5t-94.5 -38.5q-54 0 -92.5 38.5t-38.5 92.5zM948 111q0 55 39 94t94 39t93 -38.5 t38 -94.5q0 -54 -38 -92.5t-93 -38.5t-94 38.5t-39 92.5z" />
<glyph unicode="&#x202f;" horiz-adv-x="400" />
<glyph unicode="&#x2039;" horiz-adv-x="536" d="M72 397q-17 23 0 49l223 304q14 24 37 24h71q26 0 34.5 -19t-3.5 -44l-145 -285l139 -301q11 -25 2.5 -43.5t-33.5 -18.5h-82q-17 0 -30 17z" />
<glyph unicode="&#x203a;" horiz-adv-x="536" d="M96.5 755q8.5 19 34.5 19h72q23 0 37 -24l223 -304q17 -26 0 -49l-213 -317q-13 -17 -31 -17h-82q-25 0 -33.5 18.5t2.5 43.5l140 301l-146 285q-12 25 -3.5 44z" />
<glyph unicode="&#x205f;" horiz-adv-x="500" />
<glyph unicode="&#x20ac;" horiz-adv-x="1482" d="M41 553v20q0 15 11 27t26 12h80q-6 50 -6 103q0 31 2 45h-76q-15 0 -26 12t-11 27v20q0 15 11 27t26 12h88q50 257 253.5 426.5t471.5 169.5q150 0 268 -47.5t227 -142.5q13 -12 14 -29t-11 -29l-86 -88q-12 -14 -29.5 -14t-32.5 14q-69 65 -160 99t-188 34 q-180 0 -316 -111t-180 -282h527q17 0 28 -11.5t11 -27.5v-22q0 -15 -11 -26t-28 -11h-543q-2 -14 -2 -41q0 -63 10 -107h453q17 0 28 -11.5t11 -27.5v-22q0 -15 -11 -26t-28 -11h-422q57 -145 185 -235.5t290 -90.5q102 0 185 35.5t167 100.5q27 21 49 2l95 -93 q11 -11 10 -27.5t-12 -27.5q-204 -198 -498 -198q-253 0 -449.5 149.5t-261.5 384.5h-102q-15 0 -26 12t-11 27z" />
<glyph unicode="&#x2122;" horiz-adv-x="1476" d="M94 1346v49q0 15 12 27t27 12h406q17 0 28 -11.5t11 -27.5v-49q0 -17 -11 -28t-28 -11h-138v-467q0 -15 -12 -27t-27 -12h-53q-17 0 -28 11.5t-11 27.5v467h-137q-16 0 -27.5 11t-11.5 28zM645 848l107 565q3 12 14.5 21.5t24.5 9.5h8q9 0 20.5 -7.5t14.5 -15.5l172 -407 l176 407q3 8 14.5 15.5t20.5 7.5h8q12 0 24 -9.5t15 -21.5l108 -567q3 -19 -8.5 -32t-30.5 -13h-53q-13 0 -24.5 10.5t-14.5 24.5l-57 297l-140 -320q-3 -7 -13 -12.5t-19 -5.5h-13q-8 0 -19 6t-15 14l-134 318l-61 -299q-1 -12 -14 -22.5t-25 -10.5h-47q-20 0 -31 14t-8 33 z" />
<glyph unicode="&#xe000;" horiz-adv-x="819" d="M0 0v819h819v-819h-819z" />
<glyph unicode="&#xfb03;" horiz-adv-x="1699" d="M59 688v92q0 17 11 28t28 11h99v207q0 185 108.5 293.5t292.5 114.5q25 0 49.5 -2t46 -7t39.5 -9.5t36 -12.5t29.5 -13t26 -13.5t20 -12l16.5 -10.5l11 -8q94 108 273 108q90 0 177 -30.5t136 -61.5q12 -7 15 -23t-5 -28l-53 -97q-15 -23 -53 -6q-14 9 -41.5 22t-78 28.5 t-91.5 15.5q-72 0 -121 -51.5t-49 -151.5v-252h547q15 0 27 -12t12 -27v-741q0 -15 -12 -27t-27 -12h-117q-17 0 -28 11.5t-11 27.5v610h-391v-610q0 -15 -12 -27t-27 -12h-121q-15 0 -27 12t-12 27v610h-387v-610q0 -15 -12 -27t-27 -12h-120q-15 0 -27 12t-12 27v610h-99 q-17 0 -28 11.5t-11 27.5zM395 819h387v254q0 49 11 109q-23 27 -76.5 50t-112.5 23q-90 0 -149.5 -57t-59.5 -172v-207z" />
<glyph unicode="&#xfb04;" horiz-adv-x="1716" d="M59 688v92q0 17 11 28t28 11h99v207q0 102 32.5 181.5t88.5 128t127 73.5t153 25q161 0 274 -88q94 108 283 108q76 0 145 -28t100 -56l32 -27l18 56q12 35 45 35h49q15 0 27 -12t12 -27v-1356q0 -15 -12 -27t-27 -12h-117q-15 0 -26.5 12t-11.5 27v1114l-12.5 15 t-29.5 28.5t-46 34t-60.5 26t-73.5 11.5q-76 0 -131 -48.5t-55 -146.5v-254h205q17 0 28 -11t11 -28v-90q0 -16 -11 -27.5t-28 -11.5h-205v-612q0 -15 -12 -27t-27 -12h-121q-15 0 -27 12t-12 27v610h-387v-610q0 -15 -12 -27t-27 -12h-120q-15 0 -27 12t-12 27v610h-99 q-17 0 -28 11.5t-11 27.5zM395 819h387v254q0 55 13 109q-25 27 -78.5 50t-112.5 23q-89 0 -149 -57.5t-60 -171.5v-207z" />
</font>
</defs>
</svg>
